Тройная граница / Triple Frontier (Джей Си Чендор / J.C. Chandor) [2019, США, боевик, триллер, драма, криминал, приключения, WEB-DLRip] Dub (Невафильм)

Ответить на тему
Статистика раздачи
Размер:  1,46 GB   |    Зарегистрирован:  1 месяц 6 дней   |    Скачан:  0 раз

Полного источника не было: Никогда

   
 
Автор Сообщение

karlll ®

Пол: Не указан

Стаж: 1 месяц 12 дней

Сообщений: 64

Создавать темы 18-Мар-2019 10:22

[Цитировать]

Тройная граница / Triple Frontier- Год выхода: 2019
Страна: США
Жанр: боевик, триллер, драма, криминал, приключения
Продолжительность: 02:05:52
Перевод: Профессиональный (полное дублирование) Невафильм
Субтитры: Русские (форсированные) (внешние *.srt)-Режиссер:
Джей Си Чендор / J.C. Chandor-В ролях:
Бен Аффлек, Педро Паскаль, Чарли Ханнэм, Оскар Айзек, Гаррет Хедлунд, Адриа Архона, Шейла Ванд, Рейнальдо Гальегос, Кристин Хорн, Шон МакБрайд-О фильме:
Пограничная зона между Парагваем, Аргентиной и Бразилией считается раем для организованной преступности, наркоторговцев и террористов. Долгие годы отряды специального назначения пытались зачистить регион, но безуспешно. Пятеро оперативников устали смотреть, как впустую погибают их коллеги, и решают взять дело в свои руки. Они рассчитывают ограбить местного наркобарона и одним выстрелом убить двух зайцев — лишить крупный картель финансирования и обеспечить себе безбедное существование.-| IMDB | КиноПоиск | Сэмпл |-Качество: WEB-DLRip
Формат: AVI
Видео: 704x336 (2.10:1), 24.000 fps, XviD build 67 ~1270 kbps avg, 0.22 bit/pixel
Аудио: 48 kHz, AC3 Dolby Digital, 3/2 (L,C,R,l,r) + LFE ch, ~384 kbps avg-

Скриншоты

-

MediaInfo

Код:Полное имя : C:\Troinaya_granica_2019_WEB-DLRip_by_Dalemake.avi
Формат : AVI
Формат/Информация : Audio Video Interleave
Размер файла : 1,46 Гбайт
Продолжительность : 2 ч. 5 м.
Общий поток : 1663 Кбит/сек
Программа кодирования : VirtualDubMod 1.5.10.3 | www.virtualdub-fr.org || (build 2550/release)
Библиотека кодирования : VirtualDubMod build 2550/release
Видео
Идентификатор : 0
Формат : MPEG-4 Visual
Профиль формата : Advanced Simple@L5
Параметр BVOP формата : 1
Параметр QPel формата : Нет
Параметр GMC формата : Без точки перехода
Параметр матрицы формата : Выборочная
Идентификатор кодека : XVID
Идентификатор кодека/Подсказка : XviD
Продолжительность : 2 ч. 5 м.
Битрейт : 1270 Кбит/сек
Ширина : 704 пикселя
Высота : 336 пикселей
Соотношение сторон : 2,095
Частота кадров : 24,000 кадра/сек
Цветовое пространство : YUV
Субдискретизация насыщенности : 4:2:0
Битовая глубина : 8 бит
Тип развёртки : Прогрессивная
Метод сжатия : С потерями
Бит/(Пиксели*Кадры) : 0.224
Размер потока : 1,12 Гбайт (76%)
Библиотека кодирования : XviD 67
Аудио
Идентификатор : 1
Формат : AC-3
Формат/Информация : Audio Coding 3
Расширение режима : CM (complete main)
Параметр Endianness формата : Big
Идентификатор кодека : 2000
Продолжительность : 2 ч. 5 м.
Вид битрейта : Постоянный
Битрейт : 384 Кбит/сек
Каналы : 6 каналов
Расположение каналов : Front: L C R, Side: L R, LFE
Частота : 48,0 КГц
Метод сжатия : С потерями
Размер потока : 346 Мбайт (23%)
Выравнивание : Разделение по промежуткам
Продолжительность промежутка : 42 мс. (1,00 видеокадр)
Время предзагрузки промежутка : 500 мс.
-

Если ваш рейтинг упадет ниже 0,3, вы не сможете скачивать торренты! Подробнее о рейтинге.

[cybertorrent.ru].t41.torrent 
Торрент: Зарегистрирован [ 2019-03-18 10:22 ] · EFDB2563B2A83B0E26479B1D2823AA6D1AA2A0C1

Скачать .torrent

Скачать

15 KB

Статус: проверено
Скачан: 0 раз
Размер: 1,46 GB
terms.php
[Профиль] [ЛС]
Показать сообщения:    
Ответить на тему

Текущее время: 24-Апр 17:48

Часовой пояс: UTC ± 0



Вы не можете начинать темы
Вы не можете отвечать на сообщения
Вы не можете редактировать свои сообщения
Вы не можете удалять свои сообщения
Вы не можете голосовать в опросах
Вы не можете прикреплять файлы к сообщениям
Вы можете скачивать файлы