Врата ада / Адские врата / Hellgate (Уильям А. Леви / William A. Levey) [1989, США, ЮАР, ужасы, комедия, VHSRip] [FullScreen] MVO (Варус)

Ответить на тему
Статистика раздачи
Размер:  1,37 GB   |    Зарегистрирован:  2 месяца 7 дней   |    Скачан:  0 раз

Полного источника не было: Никогда

   
 
Автор Сообщение

serzh ®

Пол: Не указан

Стаж: 2 месяца 13 дней

Сообщений: 184

Создавать темы 18-Мар-2019 09:57

[Цитировать]

Врата ада / Адские врата / Hellgate
[FullScreen]
«Beyond the darkness terror lives forever»
Страна: США, ЮАР
Жанр: ужасы, комедия
Год выпуска: 1989
Продолжительность: 01:27:38
Перевод: Профессиональный (многоголосый закадровый) Варус
Субтитры: нет
Режиссер: Уильям А. Леви / William A. Levey
В ролях: Рон Палильо, Эбигейл Уолкотт, Карель Тричард, Petrea Curran, Ивэн Дж. Клиссер, Джоэнн Варде, Фрэнк Нотаро, Лэнс Вон, Виктор Меллени, Лен Спэрроухок
Описание: Две девушки и парень собрались в загородном доме и развлекались, рассказывая друг другу страшные истории, поджидая второго юношу. Одна из девушек рассказала про Hellgate (буквальный перевод "Врата ада") — город привидений, созданный при помощи волшебного кристалла, найденного в заброшенной шахте. Один работяга нашёл его, и луч из кристалла оживил только что убитую летучую мышь. Он отнёс кристалл хозяину, а тот оживил свою убиенную шайкой мотоциклистов дочь и послал её завлекать на дороге одиноких путников, чтобы зверски им мстить и убивать. Оживлённая дочурка, естественно, повстречала юношу, которого ждали наши герои.
Доп. информация: Оцифровка VHS из коллекции Raptorio Rio
Релиз
Сэмпл: https://yadi.sk/i/ai-5Jvvi3ZzFVn
Качество видео: VHSRip
Формат видео: AVI
Видео: 704x544 (1.29:1), 25 fps, XviD build 73 ~2028 kbps avg, 0.21 bit/pixel
Аудио: 48 kHz, AC3 Dolby Digital, 2/0 (L,R) ch, ~192 kbps

MediaInfo

Врата ада - HellGate [by Raptorio Rio].avi
Format : AVI
Format/Info : Audio Video Interleave
File size : 1.37 GiB
Duration : 1 h 27 min
Overall bit rate : 2 230 kb/s
Movie name : Врата ада - HellGate [by Raptorio Rio]
Director : by Raptorio Rio
Writing application : VirtualDubMod 1.5.10.3 | www.virtualdub-fr.org || (build 2550/release)
Copyright : Edich2
Comment : RuTracker.org
Video
ID : 0
Format : MPEG-4 Visual
Format profile : Advanced Simple@L5
Format settings : BVOP1 / Custom Matrix
Format settings, BVOP : 1
Format settings, QPel : No
Format settings, GMC : No warppoints
Format settings, Matrix : Custom
Codec ID : XVID
Codec ID/Hint : XviD
Duration : 1 h 27 min
Bit rate : 2 028 kb/s
Width : 704 pixels
Height : 544 pixels
Display aspect ratio : 1.294
Frame rate : 25.000 FPS
Color space : YUV
Chroma subsampling : 4:2:0
Bit depth : 8 bits
Scan type : Progressive
Compression mode : Lossy
Bits/(Pixel*Frame) : 0.212
Stream size : 1.24 GiB (91%)
Writing library : XviD 73
Audio
ID : 1
Format : AC-3
Format/Info : Audio Coding 3
Codec ID : 2000
Duration : 1 h 27 min
Bit rate mode : Constant
Bit rate : 192 kb/s
Channel(s) : 2 channels
Channel positions : Front: L R
Sampling rate : 48.0 kHz
Frame rate : 31.250 FPS (1536 SPF)
Bit depth : 16 bits
Compression mode : Lossy
Stream size : 120 MiB (9%)
Alignment : Split accross interleaves
Interleave, duration : 40 ms (1.00 video frame)
Interleave, preload duratio : 500 ms
Service kind : Complete Main

Скриншоты



[cybertorrent.ru].t410.torrent 
Торрент: Зарегистрирован [ 2019-03-18 10:04 ] · C2D90D674AD55521848BB33116F4227F60AB9CE5

Скачать .torrent

Скачать

14 KB

Статус: проверено
Скачан: 0 раз
Размер: 1,37 GB
terms.php
[Профиль] [ЛС]
Показать сообщения:    
Ответить на тему

Текущее время: 25-Май 16:00

Часовой пояс: UTC ± 0



Вы не можете начинать темы
Вы не можете отвечать на сообщения
Вы не можете редактировать свои сообщения
Вы не можете удалять свои сообщения
Вы не можете голосовать в опросах
Вы не можете прикреплять файлы к сообщениям
Вы можете скачивать файлы