Привередливая мышка (Сергей Струсовский) [2013, Россия, мультфильм, WEBRip-AVC]

Ответить на тему
Статистика раздачи
Размер:  152 MB   |    Зарегистрирован:  5 месяцев 30 дней   |    Скачан:  0 раз

Полного источника не было: Никогда

   
 
Автор Сообщение

xelon ®

Пол: Не указан

Стаж: 6 месяцев 5 дней

Сообщений: 108

Создавать темы 18-Мар-2019 09:57

[Цитировать]

Привередливая мышка
Страна: Россия
Жанр: мультфильм
Продолжительность: 00:13:04
Год выпуска: 2013
Русские субтитры: нет
Режиссёр: Сергей Струсовский
Роли озвучивали: Елена Чебатуркина, Александр Панкратов-Чёрный, Лариса Брохман, Андрей Мерзликин, Диомид Виноградов, Пётр Иващенко
Описание: Неприметная серая мышка нашла монетку, купила себе красивый бантик и стала такой приметной, что все обитатели леса сразу захотели с ней дружить. Почувствовав себя звездой, мышка решила, что никто не достоин её дружбы. Но, попав в беду, привередливая мышка поняла, как важно ценить дружбу.
Доп. информация: Диплом за лучший мультфильм для детей - Фестиваль анимации в Суздале (2014)
Приз за лучший мультфильм для детей - Фестиваль "SICAF" в Сеуле (2014)
Приз "Золотая горошина" - Фестиваль "Горошина" в Ярославле (2015)
Качество: WEBRip-AVC
Формат: MP4
Видео: 1493 kbps, 1280х720 (16:9), 25.000 fps, AVC (High@L3.1)
Аудио: 126 kbps, 44.1 kHz, 2 channels, AAC (LC)
Субтитры: отсутствуют

Подробные технические данные

General
Complete name : Привередливая мышка (2013).mp4
Format : MPEG-4
Format profile : Base Media / Version 2
Codec ID : mp42
File size : 152 MiB
Duration : 13mn 4s
Overall bit rate mode : Variable
Overall bit rate : 1 622 Kbps
Encoded date : UTC 2018-06-21 18:20:14
Tagged date : UTC 2018-06-21 18:20:14
gsst : 0
gstd : 784253
Video
ID : 1
Format : AVC
Format/Info : Advanced Video Codec
Format profile : Main@L3.1
Format settings, CABAC : Yes
Format settings, ReFrames : 3 frames
Codec ID : avc1
Codec ID/Info : Advanced Video Coding
Duration : 13mn 4s
Bit rate : 1 493 Kbps
Width : 1 280 pixels
Height : 720 pixels
Display aspect ratio : 16:9
Frame rate mode : Constant
Frame rate : 25.000 fps
Color space : YUV
Chroma subsampling : 4:2:0
Bit depth : 8 bits
Scan type : Progressive
Bits/(Pixel*Frame) : 0.065
Stream size : 140 MiB (92%)
Title : ISO Media file produced by Google Inc. Created on: 06/21/2018.
Encoded date : UTC 2018-06-21 18:20:14
Tagged date : UTC 2018-06-21 18:20:14
Color primaries : BT.709
Transfer characteristics : BT.709
Matrix coefficients : BT.709
Audio
ID : 2
Format : AAC
Format/Info : Advanced Audio Codec
Format profile : LC
Codec ID : 40
Duration : 13mn 4s
Bit rate mode : Variable
Bit rate : 126 Kbps
Channel(s) : 2 channels
Channel positions : Front: L R
Sampling rate : 44.1 KHz
Compression mode : Lossy
Stream size : 11.7 MiB (8%)
Title : ISO Media file produced by Google Inc. Created on: 06/21/2018.
Language : English
Encoded date : UTC 2018-06-21 18:20:14
Tagged date : UTC 2018-06-21 18:20:14

Скриншоты

[cybertorrent.ru].t412.torrent 
Торрент: Зарегистрирован [ 2019-03-18 10:04 ] · 4AF6721BD567C2038A435F9978875EB259ACBE71

Скачать .torrent

Скачать

12 KB

Статус: проверено
Скачан: 0 раз
Размер: 152 MB
terms.php
[Профиль] [ЛС]
Показать сообщения:    
Ответить на тему

Текущее время: 17-Сен 19:39

Часовой пояс: UTC ± 0



Вы не можете начинать темы
Вы не можете отвечать на сообщения
Вы не можете редактировать свои сообщения
Вы не можете удалять свои сообщения
Вы не можете голосовать в опросах
Вы не можете прикреплять файлы к сообщениям
Вы можете скачивать файлы

Партнеры

Выражаем благодарность всем людям, внесшим вклад в наш сайт в далёком прошлом. Мы помним Вас, гордимся Вами и ждём Вас обратно!

Интересное в сети