Русичи (Адель Аль-Хадад) [2008, фэнтези, приключения, семейный, BDRip]

Ответить на тему
Статистика раздачи
Размер:  744 MB   |    Зарегистрирован:  5 месяцев 28 дней   |    Скачан:  0 раз

Полного источника не было: Никогда

   
 
Автор Сообщение

Rodin ®

Пол: Не указан

Стаж: 6 месяцев 3 дня

Сообщений: 263

Создавать темы 18-Мар-2019 09:57

[Цитировать]

Русичи
Год выпуска: 2008
Жанр: фэнтези, приключения, семейный
Продолжительность: 01:30:29.240 (135731 frames)
Субтитры: нет
Режиссер: Адель Аль-Хадад
В ролях: Антон Колесников, Сергей Глушко, Владимир Гостюхин, Петр Баранчеев, Сергей Кудряшов, Денис Карасев, Макс Максимов, Кристина Прокопович, Александр Трофимов, Альберт Филозов
Описание: На заставу Стрижень нападают воины Черного Кудесника, берут в плен князя Изяслава и смертельно ранят его сына Властимира. Но от ран его излечивает Белый Колдун, дочь которого, Настя, влюбляется в главного героя. Излечившись, Властимир обзаводится друзьями, узнает, что отец жив, и отправляется вызволять его из плена. Героям предстоит преодолеть на своем пути немало препятствий, столкнуться с врагами и предателями, выйти с честью из всех передряг и вернуться в Стрижень победителями.
Качество: BDRip
Формат: AVI
Видео кодек: XviD
Аудио кодек: МР3
Видео: 688x384 (1.79:1), 25 fps, XviD build 73 ~1011 kbps avg, 0.15 bit/pixel
Аудио: 48 kHz, MPEG Layer 3, 2 ch, ~128.00 kbps avg

Медиаинфо

General
Complete name : E:\004 Мои раздачи\Русичи 745\rusichi_745_by_bm11.avi
Format : AVI
Format/Info : Audio Video Interleave
File size : 744 MiB
Duration : 1h 30mn
Overall bit rate : 1 149 Kbps
Director : bm11
Writing application : VirtualDubMod 1.5.10.3 | www.virtualdub-fr.org || (build 2550/release)
Video
ID : 0
Format : MPEG-4 Visual
Format profile : Advanced Simple@L5
Format settings, BVOP : 1
Format settings, QPel : No
Format settings, GMC : No warppoints
Format settings, Matrix : Custom
Codec ID : XVID
Codec ID/Hint : XviD
Duration : 1h 30mn
Bit rate : 1 012 Kbps
Width : 688 pixels
Height : 384 pixels
Display aspect ratio : 16:9
Frame rate : 25.000 fps
Color space : YUV
Chroma subsampling : 4:2:0
Bit depth : 8 bits
Scan type : Progressive
Compression mode : Lossy
Bits/(Pixel*Frame) : 0.153
Stream size : 655 MiB (88%)
Writing library : XviD 73
Audio
ID : 1
Format : MPEG Audio
Format version : Version 1
Format profile : Layer 3
Codec ID : 55
Codec ID/Hint : MP3
Duration : 1h 30mn
Bit rate mode : Constant
Bit rate : 128 Kbps
Channel(s) : 2 channels
Sampling rate : 48.0 KHz
Compression mode : Lossy
Stream size : 82.8 MiB (11%)
Alignment : Aligned on interleaves
Interleave, duration : 40 ms (1.00 video frame)
Interleave, preload duratio : 504 ms
Writing library : LAME3.99r
Encoding settings : -m s -V 4 -q 2 -lowpass 17 -b 128
[cybertorrent.ru].t414.torrent 
Торрент: Зарегистрирован [ 2019-03-18 10:04 ] · FDDE8511A964E495E891184E52BB345D63B4181D

Скачать .torrent

Скачать

15 KB

Статус: проверено
Скачан: 0 раз
Размер: 744 MB
terms.php
[Профиль] [ЛС]
Показать сообщения:    
Ответить на тему

Текущее время: 16-Сен 04:18

Часовой пояс: UTC ± 0



Вы не можете начинать темы
Вы не можете отвечать на сообщения
Вы не можете редактировать свои сообщения
Вы не можете удалять свои сообщения
Вы не можете голосовать в опросах
Вы не можете прикреплять файлы к сообщениям
Вы можете скачивать файлы

Партнеры

Выражаем благодарность всем людям, внесшим вклад в наш сайт в далёком прошлом. Мы помним Вас, гордимся Вами и ждём Вас обратно!

Интересное в сети