Мотылек / Papillon (Михаэль Ноер / Michael Noer) [2017, Чехия, Испания, США, детектив, приключения, BDRip] AVO (Юрий Живов)

Ответить на тему
Статистика раздачи
Размер:  2,17 GB   |    Зарегистрирован:  3 месяца 28 дней   |    Скачан:  0 раз

Полного источника не было: Никогда

   
 
Автор Сообщение

солнышко ®

Пол: Не указан

Стаж: 4 месяца 3 дня

Сообщений: 452

Создавать темы 18-Мар-2019 13:08

[Цитировать]

Мотылек / Papillon
Страна: Чехия, Испания, США
Жанр: детектив, приключения
Год выпуска: 2017
Продолжительность: 02:13:14

Перевод: Авторский (одноголосый закадровый) Юрий Живов
Субтитры: нет
Режиссер: Михаэль Ноер / Michael Noer
В ролях: Чарли Ханнэм, Рами Малек, Томми Флэнаган, Ив Хьюсон, Роланд Мёллер, Нина Сеникар, Майкл Сока, Кристофер Фэйрбэнк, Йорик Вагенинген
Описание: Анри - виртуозный взломщик сейфов. В среде друзей и разного рода преступников он получил прозвище Мотылек за то, что взламывает замки любой сложности легко и непринужденно. Однажды, в дом к ничего ничего не подозревающему Мотыльку вламывается отряд правоохранителей. Они обвиняют Анри в убийстве и без особых разбирательств надевают ему наручники, невзирая на презумпцию невиновности...да и не совершал он никакого убийства! Однако, судьи быстро ему выносят ему обвинение и приговаривают к пожизненному сроку заключения. В тюрьме медвежатник знакомится с бывшим миллионером, который предлагает Анри огромные деньги взамен на тщательно-спланированную организацию побега. Немного поразмыслив о возможной операции, Мотылек приходит к выводу, что совершить побег в суровых условиях будет крайне сложно. Но отступать некуда - или миллионы с долгожданной свободой, или гнить в застенках камеры оставшуюся жизнь....
Доп. информация: За перевод Юрия Живова огромная благодарность участникам группы в ВКонтакте Эра VHS.

Сэмпл: http://multi-up.com/1225824
Качество видео: BDRip (Исходник Papillon.2017.BDRemuX.108Op.Werecut.PROD)
Формат видео: AVI
Видео: XviD 73, 720x304, (2,35:1), 23,976 fps, 1870 Кбит/с, 8 бит
Аудио: Русский (АС3, 6 ch (Front: L C R, Side: L R, LFE), 48,0 KHz, 448 Kbps)

MediaInfo

Общее
Полное имя : D:\Фильмы на трекер\Мотылек (детектив, приключения 2017 год).avi
Формат : AVI
Формат/Информация : Audio Video Interleave
Профиль формата : OpenDML
Размер файла : 2,17 Гбайт
Продолжительность : 2 ч. 13 м.
Общий поток : 2329 Кбит/сек
Программа кодирования : VirtualDubMod 1.5.10.2 (build 2540/release)
Библиотека кодирования : VirtualDubMod build 2540/release
Видео
Идентификатор : 0
Формат : MPEG-4 Visual
Профиль формата : Advanced Simple@L5
Параметр BVOP формата : 2
Параметр QPel формата : Нет
Параметр GMC формата : Без точки перехода
Параметр матрицы формата : Выборочная
Идентификатор кодека : XVID
Идентификатор кодека/Подсказка : XviD
Продолжительность : 2 ч. 13 м.
Битрейт : 1870 Кбит/сек
Ширина : 720 пикселей
Высота : 304 пикселя
Соотношение сторон : 2,35:1
Частота кадров : 23,976 (23976/1000) кадра/сек
Цветовое пространство : YUV
Субдискретизация насыщенности : 4:2:0
Битовая глубина : 8 бит
Тип развёртки : Прогрессивная
Метод сжатия : С потерями
Бит/(Пиксели*Кадры) : 0.356
Размер потока : 1,74 Гбайт (80%)
Библиотека кодирования : XviD 73
Аудио
Идентификатор : 1
Формат : AC-3
Формат/Информация : Audio Coding 3
Расширение режима : CM (complete main)
Параметр Endianness формата : Big
Идентификатор кодека : 2000
Продолжительность : 2 ч. 13 м.
Вид битрейта : Постоянный
Битрейт : 448 Кбит/сек
Каналы : 6 каналов
Расположение каналов : Front: L C R, Side: L R, LFE
Частота : 48,0 КГц
Частота кадров : 31,250 кадров/сек (1536 spf)
Метод сжатия : С потерями
Размер потока : 427 Мбайт (19%)
Выравнивание : Разделение по промежуткам
Продолжительность промежутка : 42 мс. (1,00 видеокадр)
Время предзагрузки промежутка : 500 мс.

Скриншот c названием фильма

Скриншоты

[cybertorrent.ru].t418.torrent 
Торрент: Зарегистрирован [ 2019-03-18 13:08 ] · BA6A8532ECD080AFAA62F80DECE8782404BF6AB8

Скачать .torrent

Скачать

11 KB

Статус: проверено
Скачан: 0 раз
Размер: 2,17 GB
terms.php
[Профиль] [ЛС]
Показать сообщения:    
Ответить на тему

Текущее время: 15-Июл 19:56

Часовой пояс: UTC ± 0



Вы не можете начинать темы
Вы не можете отвечать на сообщения
Вы не можете редактировать свои сообщения
Вы не можете удалять свои сообщения
Вы не можете голосовать в опросах
Вы не можете прикреплять файлы к сообщениям
Вы можете скачивать файлы