Девочка в джунглях (Михаил Цехановский) [1956, СССР, мультфильм, сказка, VHSRip]

Ответить на тему
Статистика раздачи
Размер:  118 MB   |    Зарегистрирован:  1 месяц 4 дня   |    Скачан:  0 раз

Полного источника не было: Никогда

   
 
Автор Сообщение

xelon ®

Пол: Не указан

Стаж: 1 месяц 10 дней

Сообщений: 60

Создавать темы 18-Мар-2019 13:07

[Цитировать]

Девочка в джунглях
Страна: СССР
Жанр: мультфильм, сказка
Продолжительность: 00:10:05
Год выпуска: 1956
Русские субтитры: нет
Режиссёр: Михаил Цехановский
Описание: По мотивам индийской сказки.
Добрая девочка встречает в джунглях тигра, попавшегося в ловушку, и освобождает его. Тигр хочет тут же съесть девочку, но та упрекает его в несправедливости. Тигр утверждает, что справедливости не существует. Девочка предлагает ему спросить у любого встречного...
Доп. информация: Оцифровка и реставрация с повреждённой временем видеокассеты - Макс Крюков, Александр Коковин
Качество: VHSRip
Формат: AVI
Видео: 1494 kbps, 688х512 (4:3), 25.000 fps, MPEG-4 Visual (XviD)
Аудио: 128 kbps, 44.1 kHz, 2 channels, MPEG Audio (MP3)
Субтитры: отсутствуют

Подробные технические данные

General
Complete name : Девочка в джунглях (1956).avi
Format : AVI
Format/Info : Audio Video Interleave
File size : 118 MiB
Duration : 10mn 5s
Overall bit rate : 1 632 Kbps
Writing application : VirtualDubMod 1.5.10.2 (build 2540/release)
Writing library : VirtualDubMod build 2540/release
Video
ID : 0
Format : MPEG-4 Visual
Format profile : Advanced Simple@L5
Format settings, BVOP : 2
Format settings, QPel : No
Format settings, GMC : No warppoints
Format settings, Matrix : Default (H.263)
Codec ID : XVID
Codec ID/Hint : XviD
Duration : 10mn 5s
Bit rate : 1 494 Kbps
Width : 688 pixels
Height : 512 pixels
Display aspect ratio : 4:3
Frame rate : 25.000 fps
Color space : YUV
Chroma subsampling : 4:2:0
Bit depth : 8 bits
Scan type : Progressive
Compression mode : Lossy
Bits/(Pixel*Frame) : 0.170
Stream size : 108 MiB (92%)
Writing library : XviD 73
Audio
ID : 1
Format : MPEG Audio
Format version : Version 1
Format profile : Layer 3
Codec ID : 55
Codec ID/Hint : MP3
Duration : 10mn 5s
Bit rate mode : Constant
Bit rate : 128 Kbps
Channel(s) : 2 channels
Sampling rate : 44.1 KHz
Compression mode : Lossy
Stream size : 9.23 MiB (8%)
Alignment : Split accross interleaves
Interleave, duration : 40 ms (1.00 video frame)
Interleave, preload duration : 500 ms

Скриншоты

Если ваш рейтинг упадет ниже 0,3, вы не сможете скачивать торренты! Подробнее о рейтинге.

[cybertorrent.ru].t427.torrent 
Торрент: Зарегистрирован [ 2019-03-18 13:08 ] · 40C14EC2B4DBA12FE5AE17F8EFE4AD310A81B33E

Скачать .torrent

Скачать

19 KB

Статус: проверено
Скачан: 0 раз
Размер: 118 MB
terms.php
[Профиль] [ЛС]
Показать сообщения:    
Ответить на тему

Текущее время: 23-Апр 05:55

Часовой пояс: UTC ± 0



Вы не можете начинать темы
Вы не можете отвечать на сообщения
Вы не можете редактировать свои сообщения
Вы не можете удалять свои сообщения
Вы не можете голосовать в опросах
Вы не можете прикреплять файлы к сообщениям
Вы можете скачивать файлы