Исчезнувшая империя (Карен Шахназаров) [2008, драма, BDRip]

Ответить на тему
Статистика раздачи
Размер:  1,46 GB   |    Зарегистрирован:  4 месяца   |    Скачан:  0 раз

Полного источника не было: Никогда

   
 
Автор Сообщение

Rodin ®

Пол: Не указан

Стаж: 4 месяца 6 дней

Сообщений: 175

Создавать темы 18-Мар-2019 13:07

[Цитировать]

Исчезнувшая империя
Год выпуска: 2008
Жанр: драма
Продолжительность: 01:48:44.736 (156437 frames)
Субтитры: нет
Режиссер: Карен Шахназаров
В ролях: Янина Калганова, Иван Купреенко, Александр Ляпин, Лидия Милюзина, Егор Барановский, Армен Джигарханян, Владимир Ильин, Артем Лысков, Велимир Русаков, Ольга Тумайкина, Ольга Ковалева, Сергей Филиппов
Описание: Действие фильма разворачивается в 70-е годы прошлого века в Москве. В центре сюжета классический любовный треугольник - два парня и девушка. Они учатся в одном институте, ссорятся, мирятся, испытывают первые разочарования, одерживают первые победы, даже не догадываясь о том, что уже очень скоро страна, в которой они родились и живут, исчезнет со всех карт мира.
Качество: BDRip
Формат: AVI
Видео кодек: XviD
Аудио кодек: АС3
Видео: 720x432 (1.67:1), 23.976 fps, XviD build 73 ~1461 kbps avg, 0.20 bit/pixel
Аудио: 48 kHz, AC3 Dolby Digital, 3/2 (L,C,R,l,r) + LFE ch, ~448.00 kbps avg

Медиаинфо

General
Complete name : E:\004 Мои раздачи\Исчезнувшая империя 1,46\ischeznuvshaya_imperiya_1.46_by_bm11.avi
Format : AVI
Format/Info : Audio Video Interleave
File size : 1.46 GiB
Duration : 1h 48mn
Overall bit rate : 1 919 Kbps
Director : bm11
Writing application : VirtualDubMod 1.5.10.3 | www.virtualdub-fr.org || (build 2550/release)
Video
ID : 0
Format : MPEG-4 Visual
Format profile : Advanced Simple@L5
Format settings, BVOP : 1
Format settings, QPel : No
Format settings, GMC : No warppoints
Format settings, Matrix : Custom
Codec ID : XVID
Codec ID/Hint : XviD
Duration : 1h 48mn
Bit rate : 1 462 Kbps
Width : 720 pixels
Height : 432 pixels
Display aspect ratio : 5:3
Frame rate : 23.976 (23976/1000) fps
Color space : YUV
Chroma subsampling : 4:2:0
Bit depth : 8 bits
Scan type : Progressive
Compression mode : Lossy
Bits/(Pixel*Frame) : 0.196
Stream size : 1.11 GiB (76%)
Writing library : XviD 73
Audio
ID : 1
Format : AC-3
Format/Info : Audio Coding 3
Mode extension : CM (complete main)
Format settings, Endianness : Big
Codec ID : 2000
Duration : 1h 48mn
Bit rate mode : Constant
Bit rate : 448 Kbps
Channel(s) : 6 channels
Channel positions : Front: L C R, Side: L R, LFE
Sampling rate : 48.0 KHz
Frame rate : 31.250 fps (1536 spf)
Compression mode : Lossy
Stream size : 348 MiB (23%)
Alignment : Split accross interleaves
Interleave, duration : 42 ms (1.00 video frame)
Interleave, preload duratio : 500 ms
[cybertorrent.ru].t431.torrent 
Торрент: Зарегистрирован [ 2019-03-18 13:08 ] · A8B293C256D7B472042D93767EBE8988E69F8071

Скачать .torrent

Скачать

15 KB

Статус: проверено
Скачан: 0 раз
Размер: 1,46 GB
terms.php
[Профиль] [ЛС]
Показать сообщения:    
Ответить на тему

Текущее время: 19-Июл 02:24

Часовой пояс: UTC ± 0



Вы не можете начинать темы
Вы не можете отвечать на сообщения
Вы не можете редактировать свои сообщения
Вы не можете удалять свои сообщения
Вы не можете голосовать в опросах
Вы не можете прикреплять файлы к сообщениям
Вы можете скачивать файлы