Властелины хаоса / Lords of Chaos (Йонас Окерлунд / Jonas Åkerlund) [2018, Великобритания, Швеция, драма, биография, криминал, музыка, WEB-DLRip] MVO (HDRezka Studio)

Ответить на тему
Статистика раздачи
Размер:  1,46 GB   |    Зарегистрирован:  5 месяцев   |    Скачан:  0 раз

Полного источника не было: Никогда

   
 
Автор Сообщение

солнышко ®

Пол: Не указан

Стаж: 5 месяцев 6 дней

Сообщений: 529

Создавать темы 18-Мар-2019 13:07

[Цитировать]

Властелины хаоса / Lords of Chaos
Страна: Великобритания, Швеция
Жанр: драма, биография, криминал, музыка
Год выпуска: 2018
Продолжительность: 01:57:27-Перевод: Любительский (многоголосый закадровый) | HDRezka Studio
Субтитры: нет
Оригинальная аудиодорожка: нет-Режиссер: Йонас Окерлунд / Jonas Åkerlund-В ролях: Рори Калкин, Эмори Коэн, Джек Килмер, Скай Феррейра, Вальтер Скарсгард, Энтони Де Ла Торре, Джонатан Барнвелл, Сэм Коулман, Уилсон Оксенкнехт, Люсиан Чарльз Колье-Описание: Норвегия, 1987 год. Молодой человек, называющий себя Евронимус, пытается создать новое направление тяжелой музыки — норвежский блэк-метал. Основанная им группа Mayhem находит идеального вокалиста из Швеции, но вскоре тот кончает с собой. Евронимус организовывает так называемый Чёрный Круг, общество для своих, куда принимает новенького по имени Кристиан, но называющего себя Варг. Варг считает, что настоящим блэк-металистам нужно не ограничиваться песнями с сатанинскими текстами, а действовать, например, — сжигать церкви.- -Качество видео: WEB-DLRip
Формат видео: AVI
Видео: 704x384 (1.83:1), 24.000 fps, XviD build 73 ~1573 kbps avg, 0.24 bit/pixel
Аудио: 48 kHz, AC3 Dolby Digital, 2/0 (L,R) ch, ~192 kbps-[box]Сэмпл[/box]-

MediaInfo

Код:Формат : AVI
Формат/Информация : Audio Video Interleave
Размер файла : 1,46 Гбайт
Продолжительность : 1 ч. 57 м.
Общий поток : 1775 Кбит/сек
Программа кодирования : VirtualDubMod 1.5.10.3 | www.virtualdub-fr.org || (build 2550/release)
Библиотека кодирования : VirtualDubMod build 2550/release
Видео
Идентификатор : 0
Формат : MPEG-4 Visual
Профиль формата : Advanced Simple@L5
Настройки формата : BVOP1 / Custom Matrix
Параметр BVOP формата : 1
Параметр QPel формата : Нет
Параметр GMC формата : Без точки перехода
Параметр матрицы формата : Выборочная
Идентификатор кодека : XVID
Идентификатор кодека/Подсказка : XviD
Продолжительность : 1 ч. 57 м.
Битрейт : 1574 Кбит/сек
Ширина : 704 пикселя
Высота : 384 пикселя
Соотношение сторон : 1,85:1
Частота кадров : 24,000 кадра/сек
Цветовое пространство : YUV
Субдискретизация насыщенности : 4:2:0
Битовая глубина : 8 бит
Тип развёртки : Прогрессивная
Метод сжатия : С потерями
Бит/(Пиксели*Кадры) : 0.243
Размер потока : 1,29 Гбайт (89%)
Библиотека кодирования : XviD 73
Аудио
Идентификатор : 1
Формат : AC-3
Формат/Информация : Audio Coding 3
Коммерческое название : Dolby Digital
Идентификатор кодека : 2000
Продолжительность : 1 ч. 57 м.
Вид битрейта : Постоянный
Битрейт : 192 Кбит/сек
Каналы : 2 канала
Channel layout : L R
Частота : 48,0 КГц
Частота кадров : 31,250 кадров/сек (1536 SPF)
Битовая глубина : 16 бит
Метод сжатия : С потерями
Размер потока : 161 Мбайт (11%)
Выравнивание : Разделение по промежуткам
Продолжительность промежутка : 42 мс. (1,00 видеокадр)
Время предзагрузки промежутка : 500 мс.
ServiceKind/String : Complete Main

Скриншоты


[cybertorrent.ru].t436.torrent 
Торрент: Зарегистрирован [ 2019-03-18 13:08 ] · 65AE65F49C084A79E40BCD8C5C1FEA4754454558

Скачать .torrent

Скачать

15 KB

Статус: проверено
Скачан: 0 раз
Размер: 1,46 GB
terms.php
[Профиль] [ЛС]
Показать сообщения:    
Ответить на тему

Текущее время: 18-Авг 23:27

Часовой пояс: UTC ± 0



Вы не можете начинать темы
Вы не можете отвечать на сообщения
Вы не можете редактировать свои сообщения
Вы не можете удалять свои сообщения
Вы не можете голосовать в опросах
Вы не можете прикреплять файлы к сообщениям
Вы можете скачивать файлы