Снежные гонки / Racetime (Бенуа Годбут / Benoît Godbout, Жан-Франсуа Пуле / Jean-François Pouliot, Франсуа Бриссон / François Brisson) [2018, Канада, мультфильм, комедия, приключения, BDRip] Dub (iTunes)

Ответить на тему
Статистика раздачи
Размер:  1,46 GB   |    Зарегистрирован:  5 месяцев 28 дней   |    Скачан:  0 раз

Полного источника не было: Никогда

   
 
Автор Сообщение

karlll ®

Пол: Не указан

Стаж: 6 месяцев 3 дня

Сообщений: 171

Создавать темы 18-Мар-2019 13:07

[Цитировать]

Снежные гонки / Racetime
Страна: Канада
Жанр: мультфильм, комедия, приключения
Год выпуска: 2018
Продолжительность: 01:29:32-Перевод: Профессиональный (дублированный) | iTunes
Субтитры: нет
Оригинальная аудиодорожка: нет-Режиссер: Бенуа Годбут / Benoît Godbout, Жан-Франсуа Пуле / Jean-François Pouliot, Франсуа Бриссон / François Brisson-Роли озвучивали: Соня Болл, Люсинда Дэвис, Тод Феннел, Ноэль Фишер, Доун Форд, Анджела Галуппо, Холли Дж. Франкель, Elizabeth Macrae, Сатине Скарлет Монтас, Дон Шеперд-Описание: В маленькой живописной деревушке на заснеженных горных склонах Канады детвора устраивает настоящее спортивное состязание - гонки! Каждый участник подходит к делу со всей ответственностью и сам мастерит себе санки. Но, как и в любом другом виде спорта, в снежных гонках не обходится без обмана, ведь победить хочет каждый!- -Качество видео: BDRip | RACETIME_2018_BLUEBIRD
Формат видео: AVI
Видео: 720x304 (2.37:1), 23.976 fps, XviD build 73 ~1933 kbps avg, 0.37 bit/pixel
Аудио: 48 kHz, AC3 Dolby Digital, 3/2 (L,C,R,l,r) + LFE ch, ~384 kbps-[box]Сэмпл[/box]-

MediaInfo

Код:Формат : AVI
Формат/Информация : Audio Video Interleave
Размер файла : 1,46 Гбайт
Продолжительность : 1 ч. 29 м.
Общий поток : 2327 Кбит/сек
Программа кодирования : VirtualDubMod 1.5.10.3 | www.virtualdub-fr.org || (build 2550/release)
Библиотека кодирования : VirtualDubMod build 2550/release
Видео
Идентификатор : 0
Формат : MPEG-4 Visual
Профиль формата : Advanced Simple@L5
Настройки формата : BVOP1 / Custom Matrix
Параметр BVOP формата : 1
Параметр QPel формата : Нет
Параметр GMC формата : Без точки перехода
Параметр матрицы формата : Выборочная
Идентификатор кодека : XVID
Идентификатор кодека/Подсказка : XviD
Продолжительность : 1 ч. 29 м.
Битрейт : 1934 Кбит/сек
Ширина : 720 пикселей
Высота : 304 пикселя
Соотношение сторон : 2,35:1
Частота кадров : 23,976 (24000/1001) кадра/сек
Цветовое пространство : YUV
Субдискретизация насыщенности : 4:2:0
Битовая глубина : 8 бит
Тип развёртки : Прогрессивная
Метод сжатия : С потерями
Бит/(Пиксели*Кадры) : 0.368
Размер потока : 1,21 Гбайт (83%)
Библиотека кодирования : XviD 73
Аудио
Идентификатор : 1
Формат : AC-3
Формат/Информация : Audio Coding 3
Коммерческое название : Dolby Digital
Идентификатор кодека : 2000
Продолжительность : 1 ч. 29 м.
Вид битрейта : Постоянный
Битрейт : 384 Кбит/сек
Каналы : 6 каналов
Channel layout : L R C LFE Ls Rs
Частота : 48,0 КГц
Частота кадров : 31,250 кадров/сек (1536 SPF)
Битовая глубина : 16 бит
Метод сжатия : С потерями
Размер потока : 246 Мбайт (17%)
Выравнивание : Разделение по промежуткам
Продолжительность промежутка : 42 мс. (1,00 видеокадр)
Время предзагрузки промежутка : 500 мс.
ServiceKind/String : Complete Main

Скриншоты


[cybertorrent.ru].t444.torrent 
Торрент: Зарегистрирован [ 2019-03-18 13:08 ] · 7669FAB3CE84C1DE4D7B4A040972D0B9D3795B4E

Скачать .torrent

Скачать

15 KB

Статус: проверено
Скачан: 0 раз
Размер: 1,46 GB
terms.php
[Профиль] [ЛС]
Показать сообщения:    
Ответить на тему

Текущее время: 16-Сен 04:25

Часовой пояс: UTC ± 0



Вы не можете начинать темы
Вы не можете отвечать на сообщения
Вы не можете редактировать свои сообщения
Вы не можете удалять свои сообщения
Вы не можете голосовать в опросах
Вы не можете прикреплять файлы к сообщениям
Вы можете скачивать файлы

Партнеры

Выражаем благодарность всем людям, внесшим вклад в наш сайт в далёком прошлом. Мы помним Вас, гордимся Вами и ждём Вас обратно!

Интересное в сети