Анатомия убийства / Серии: 1-8 из 12 (Артур Румынский) [2019, детектив, WEBRip]

Ответить на тему
Статистика раздачи
Размер:  4,65 GB   |    Зарегистрирован:  5 месяцев   |    Скачан:  0 раз

Полного источника не было: Никогда

   
 
Автор Сообщение

sss777sss ®

Пол: Не указан

Стаж: 5 месяцев 6 дней

Сообщений: 401

Создавать темы 18-Мар-2019 13:07

[Цитировать]

Анатомия убийства
Год выпуска: 2019
Производство: Мэджик Фэктори, Маурис Филм
Жанр: детектив
Продолжительность: ~00:48:00 серия
Субтитры: нет
Режиссёр: Артур Румынский
В ролях: Дарья Семёнова, Андрей Чернышов, Даниил Спиваковский, Ольга Медынич, Евгений Сидихин, Лариса Удовиченко, Галина Польских, Галина Петрова, Екатерина Волкова, Сергей Чонишвили, Екатерина Соломатина, Дмитрий Мазуров, Александр Никитин , Елена Полякова, Максим Битюков, Григорий Быстрицкий, Иван Косичкин, Дмитрий Фрид, Юлия Максимова, Владислав Павлов, Алексей Рыжков, Мария Куликова, Алексей Князев, Вероника Корниенко, Галина Кашковская, Иван Агапов, Владимир Стеклов, Любовь Матюшина, Дмитрий Бедерин, Юлия Франц, Иван Мамонов, Алексей Войтюк, Вадим Медведев , Ирина Бразговка, Михаил Васьков, Алёна Спивак, Евгений Токарев
Описание: В одночасье рушится привычная жизнь блестящего патологоанатома Евгении Волковой. Очередное вскрытие ставит Евгению перед дилеммой: стать соучастницей преступления или отправить близкого человека за решётку. Евгения выбирает третий вариант: бегство. Женя устраивается сиделкой в столичную семью, но проработать долго на новом месте ей не удается. Случайное знакомство с загадочным программистом Сергеем Карским по-настоящему меняет жизнь Евгении. Теперь им предстоит вместе распутать не одно таинственное преступление: запутанная история убийства генерала, мистические явления в доме знаменитой актрисы, история мести, тайна особняка XIX века, похищенная картина…

Реклама: Нет.
Кинопоиск
Все раздачи сериала
Sample
Качество: WEBRip - Files-x
Формат: AVI
Видео кодек: XviD
Аудио кодек: AC3
Видео: 720x400 (1.80:1), 25 fps, XviD ~1600 kbps avg, 0.222 bit/pixel
Аудио: 48.0 kHz, AC3 Dolby Digital, 2/0 (L,R) ch, ~ 192 kbps

Список и содержание серий

Фильм 1. Скелет в шкафу (1-4 серии)
Евгения устраивается сиделкой в богатый дом Самсоновых в Подмосковье. Однако ей не удалось начать новую спокойную жизнь. В доме витает тревога. Предыдущая сиделка, Раиса, умерла при странных обстоятельствах. Каждый из обитателей дома что-то скрывает. Профессия приучила Евгению к дотошности, вот и теперь она начинает настойчиво и методично искать правду. Также Евгении помогает сосед семейства Карский.
Фильм 2. Убийственная справедливость(5-8 серии)
Актриса просит Евгению Волкову разобраться со странными явлениями, которые происходят в доме — ей кажется, что кто-то планомерно сводит ее с ума. Евгения и Карский пытаются распутать клубок интриг, в центре которых оказалась актриса.
Фильм 3. Насмешка судьбы(9-10 серии)
Евгения продолжает работать сиделкой, но в этой серии предстает как племянница пенсионерки Ольги Колосовой. В доме Колосовой нашли труп неизвестной женщины.
Фильм 4. Ужин на шестерых(11-12 серии)
Евгения вместе с Карским расследуют неожиданную смерть нового соседа, известного галериста и коллекционера.

Внимание! Раздача ведётся путём добавления новых серий

Раздача ведётся путём добавления новых серий, при каждом добавлении создаётся новый торрент. Чтобы начать докачку новой серии, пользователям необходимо сделать следующее:
- Остановить скачивание.
- Удалить старый торрент у себя из клиента (старые серии удалять не надо).
- Скачать новый торрент и запустить его у себя в клиенте вместо старого, при этом указать клиенту путь в старую папку куда и должно происходить скачивание новых серий.
Ваш клиент при этом должен произвести хеширование (проверку) старой папки (если не производит сам - помогите ему сделать это), и будет докачивать только те серии которых у вас ещё нет. Старые серии при этом не удаляются, а продолжают раздаваться!
Если вы уже удалили старые серии, то предотвратить повторную закачку старых серий можно, отжав галочку в соответствующих местах при запуске нового торрента. По возможности, желательно не удалять старые серии как можно дольше, чтобы релизер не столько продолжал раздавать старые серии, а смог сконцентрироваться на новых.

MI

General
Complete name : D:\Анатомия убийства.(2018).WEB-DLRip.Files-x\01.Анатомия убийства.(2018).WEB-DLRip.Files-x.avi
Format : AVI
Format/Info : Audio Video Interleave
File size : 622 MiB
Duration : 48 min 16 s
Overall bit rate : 1 802 kb/s
Writing application : VirtualDubMod 1.5.10.3 | www.virtualdub-fr.org || (build 2550/release)
Writing library : VirtualDubMod build 2550/release
Video
ID : 0
Format : MPEG-4 Visual
Format profile : Advanced Simple@L5
Format settings : BVOP1 / Custom Matrix
Format settings, BVOP : 1
Format settings, QPel : No
Format settings, GMC : No warppoints
Format settings, Matrix : Custom
Codec ID : XVID
Codec ID/Hint : XviD
Duration : 48 min 16 s
Bit rate : 1 600 kb/s
Width : 720 pixels
Height : 400 pixels
Display aspect ratio : 16:9
Frame rate : 25.000 FPS
Color space : YUV
Chroma subsampling : 4:2:0
Bit depth : 8 bits
Scan type : Progressive
Compression mode : Lossy
Bits/(Pixel*Frame) : 0.222
Stream size : 552 MiB (89%)
Writing library : XviD 73
Audio
ID : 1
Format : AC-3
Format/Info : Audio Coding 3
Codec ID : 2000
Duration : 48 min 16 s
Bit rate mode : Constant
Bit rate : 192 kb/s
Channel(s) : 2 channels
Channel positions : Front: L R
Sampling rate : 48.0 kHz
Frame rate : 31.250 FPS (1536 SPF)
Bit depth : 16 bits
Compression mode : Lossy
Stream size : 66.3 MiB (11%)
Alignment : Split accross interleaves
Interleave, duration : 40 ms (1.00 video frame)
Interleave, preload duratio : 500 ms
Service kind : Complete Main

Скриншоты


[cybertorrent.ru].t446.torrent 
Торрент: Зарегистрирован [ 2019-03-18 13:08 ] · 7375C384DAB831670C508430DF43A513278055EC

Скачать .torrent

Скачать

25 KB

Статус: проверено
Скачан: 0 раз
Размер: 4,65 GB
terms.php
[Профиль] [ЛС]
Показать сообщения:    
Ответить на тему

Текущее время: 18-Авг 23:30

Часовой пояс: UTC ± 0



Вы не можете начинать темы
Вы не можете отвечать на сообщения
Вы не можете редактировать свои сообщения
Вы не можете удалять свои сообщения
Вы не можете голосовать в опросах
Вы не можете прикреплять файлы к сообщениям
Вы можете скачивать файлы