Обвиняются в убийстве (Борис Волчек) [1969, криминальная драма, TVRip-AVC]

Ответить на тему
Статистика раздачи
Размер:  1,46 GB   |    Зарегистрирован:  5 месяцев 28 дней   |    Скачан:  0 раз

Полного источника не было: Никогда

   
 
Автор Сообщение

edich ®

Пол: Не указан

Стаж: 6 месяцев 3 дня

Сообщений: 173

Создавать темы 18-Мар-2019 13:07

[Цитировать]

Обвиняются в убийстве
Жанр: криминальная драма
Год выпуска: 1969
Продолжительность: 01:33:49
Режиссер: Борис Волчек
В ролях: Елена Козелькова, Мария Призван-Соколова, Елена Добронравова, Наталья Гущина, Алексей Панькин, Семен Морозов, Владимир Носик, Игорь Старыгин, Алексей Глазырин, Владимир Анисько, Евгений Евстигнеев, Всеволод Якут, Нина Маслова, Евгений Герасимов, Юрий Горобец, Анатолий Борисов, Иван Любич, Валентина Березуцкая, Владимир Белокуров, Л. Баум, Кирилл Гунн, Лилия Захарова, Сергей Подколзин, Сергей Приселков, Борис Руднев, Елена Фетисенко, Дмитрий Орловский, Людмила Цветкова
Описание: Криминальная драма в стиле "судебное расследование". В судебном процессе судьи пытаются найти главного виновного в убийстве. Банальная пьяная драка со смертельным исходом в суде превращается в психологический детектив.
Довольно характерный для советского периода художественный прием и снято сильно.
Еще 2 очень близких по стилю и силе фильма:
Без права на ошибку
Средь бела дня...
Источник: http://cybertorrent.ru/forum/viewtopic.php?t=3649946
семпл: https://www.sendspace.com/file/424eo9
Качество видео: TVRip-AVC
Формат видео: MKV
Видео: 702x570@750x570 (1.33:1), 25 fps, AVC (H.264), 2032 kbps avg, 0.203 bit/pixel
Аудио: 48 kHz, MP2, 2 ch, 192 kbps avg

MI

General
Unique ID : 239906135652918872333419311517770638776 (0xB47C3DB56D832F4E703FE2639706E5B8)
Complete name : G:\КИНО\Обвиняются в убийстве.mkv
Format : Matroska
Format version : Version 4
File size : 1.46 GiB
Duration : 1 h 33 min
Overall bit rate : 2 226 kb/s
Encoded date : UTC 2019-03-09 20:01:21
Writing application : mkvmerge v31.0.0 ('Dolores In A Shoestand') 64-bit
Writing library : libebml v1.3.6 + libmatroska v1.4.9
Video
ID : 1
Format : AVC
Format/Info : Advanced Video Codec
Format profile : High@L4.1
Format settings : CABAC / 16 Ref Frames
Format settings, CABAC : Yes
Format settings, ReFrames : 16 frames
Codec ID : V_MPEG4/ISO/AVC
Duration : 1 h 33 min
Bit rate : 2 032 kb/s
Width : 702 pixels
Height : 570 pixels
Display aspect ratio : 4:3
Original display aspect rat : 4:3
Frame rate mode : Constant
Frame rate : 25.000 FPS
Color space : YUV
Chroma subsampling : 4:2:0
Bit depth : 8 bits
Scan type : Progressive
Bits/(Pixel*Frame) : 0.203
Stream size : 1.33 GiB (91%)
Writing library : x264 core 157 r2935 545de2f
Encoding settings : cabac=1 / ref=16 / deblock=1:-2:-1 / analyse=0x3:0x133 / me=umh / subme=10 / psy=1 / psy_rd=1.00:0.00 / mixed_ref=1 / me_range=32 / chroma_me=1 / trellis=2 / 8x8dct=1 / cqm=0 / deadzone=21,11 / fast_pskip=0 / chroma_qp_offset=-2 / threads=6 / lookahead_threads=1 / sliced_threads=0 / nr=0 / decimate=1 / interlaced=0 / bluray_compat=0 / constrained_intra=0 / bframes=10 / b_pyramid=2 / b_adapt=2 / b_bias=0 / direct=3 / weightb=1 / open_gop=0 / weightp=2 / keyint=250 / keyint_min=25 / scenecut=40 / intra_refresh=0 / rc_lookahead=60 / rc=2pass / mbtree=1 / bitrate=2032 / ratetol=1.0 / qcomp=0.60 / qpmin=10 / qpmax=51 / qpstep=4 / cplxblur=20.0 / qblur=0.5 / vbv_maxrate=50000 / vbv_bufsize=50000 / nal_hrd=none / filler=0 / ip_ratio=1.40 / aq=1:1.00
Language : English
Default : Yes
Forced : No
Audio
ID : 2
Format : MPEG Audio
Format version : Version 1
Format profile : Layer 2
Codec ID : A_MPEG/L2
Codec ID/Hint : MP2
Duration : 1 h 33 min
Bit rate mode : Constant
Bit rate : 192 kb/s
Channel(s) : 2 channels
Sampling rate : 48.0 kHz
Frame rate : 41.667 FPS (1152 SPF)
Compression mode : Lossy
Stream size : 129 MiB (9%)
Default : Yes
Forced : No

скриншоты

лог

---[Information] [09.03.2019 18:49:05] y4m [info]: 702x570p 83201:78000 @ 25/1 fps (cfr)
---[Information] [09.03.2019 18:49:05] x264 [info]: using SAR=16/15
---[Information] [09.03.2019 18:49:05] x264 [info]: using cpu capabilities: MMX2 SSE2Fast SSSE3 SSE4.2 AVX XOP FMA3 BMI1
---[Information] [09.03.2019 18:49:05] x264 [info]: profile High, level 4.1, 4:2:0, 8-bit
---[Information] [09.03.2019 22:59:19] x264 [info]: frame I:704 Avg QP:18.17 size: 43832
---[Information] [09.03.2019 22:59:19] x264 [info]: frame P:29281 Avg QP:20.58 size: 20818
---[Information] [09.03.2019 22:59:19] x264 [info]: frame B:110764 Avg QP:23.45 size: 7130
---[Information] [09.03.2019 22:59:19] x264 [info]: consecutive B-frames: 1.5% 2.0% 5.1% 20.0% 17.1% 43.5% 7.2% 2.4% 0.9% 0.1% 0.1%
---[Information] [09.03.2019 22:59:19] x264 [info]: mb I I16..4: 2.5% 87.2% 10.2%
---[Information] [09.03.2019 22:59:19] x264 [info]: mb P I16..4: 0.6% 10.0% 0.8% P16..4: 43.8% 27.8% 15.9% 0.3% 0.0% skip: 0.7%
---[Information] [09.03.2019 22:59:19] x264 [info]: mb B I16..4: 0.0% 0.9% 0.1% B16..8: 43.6% 13.1% 3.1% direct: 9.2% skip:30.1% L0:44.9% L1:43.0% BI:12.1%
---[Information] [09.03.2019 22:59:19] x264 [info]: 8x8 transform intra:88.1% inter:74.5%
---[Information] [09.03.2019 22:59:19] x264 [info]: direct mvs spatial:99.1% temporal:0.9%
---[Information] [09.03.2019 22:59:19] x264 [info]: coded y,uvDC,uvAC intra: 93.8% 16.9% 0.9% inter: 38.7% 6.5% 0.2%
---[Information] [09.03.2019 22:59:19] x264 [info]: i16 v,h,dc,p: 33% 15% 6% 47%
---[Information] [09.03.2019 22:59:19] x264 [info]: i8 v,h,dc,ddl,ddr,vr,hd,vl,hu: 12% 7% 3% 9% 15% 15% 14% 12% 12%
---[Information] [09.03.2019 22:59:19] x264 [info]: i4 v,h,dc,ddl,ddr,vr,hd,vl,hu: 14% 7% 2% 8% 15% 16% 14% 12% 12%
---[Information] [09.03.2019 22:59:19] x264 [info]: i8c dc,h,v,p: 60% 28% 10% 2%
---[Information] [09.03.2019 22:59:19] x264 [info]: Weighted P-Frames: Y:36.5% UV:0.7%
---[Information] [09.03.2019 22:59:19] x264 [info]: ref P L0: 35.3% 12.0% 14.9% 8.1% 5.8% 4.9% 3.9% 2.5% 2.1% 2.0% 1.7% 1.6% 1.5% 1.4% 1.3% 1.0%
---[Information] [09.03.2019 22:59:19] x264 [info]: ref B L0: 73.7% 9.8% 4.4% 2.6% 1.9% 1.7% 1.3% 0.9% 0.7% 0.7% 0.6% 0.6% 0.5% 0.4% 0.2%
---[Information] [09.03.2019 22:59:19] x264 [info]: ref B L1: 96.3% 3.7%
---[Information] [09.03.2019 22:59:19] x264 [info]: kb/s:2032.20
---[Information] [09.03.2019 22:59:19] encoded 140749 frames, 9.37 fps, 2032.20 kb/s
[cybertorrent.ru].t452.torrent 
Торрент: Зарегистрирован [ 2019-03-18 13:08 ] · 9370ED64C8A0C0C972E009199D06B664047EBB06

Скачать .torrent

Скачать

15 KB

Статус: проверено
Скачан: 0 раз
Размер: 1,46 GB
terms.php
[Профиль] [ЛС]
Показать сообщения:    
Ответить на тему

Текущее время: 16-Сен 04:48

Часовой пояс: UTC ± 0



Вы не можете начинать темы
Вы не можете отвечать на сообщения
Вы не можете редактировать свои сообщения
Вы не можете удалять свои сообщения
Вы не можете голосовать в опросах
Вы не можете прикреплять файлы к сообщениям
Вы можете скачивать файлы

Партнеры

Выражаем благодарность всем людям, внесшим вклад в наш сайт в далёком прошлом. Мы помним Вас, гордимся Вами и ждём Вас обратно!

Интересное в сети