Скажи правду / Серии: 1-8 из 8 (Андрей Эшпай) [2019, драма, WEBRip 1080p]

Ответить на тему
Статистика раздачи
Размер:  14,19 GB   |    Зарегистрирован:  4 месяца   |    Скачан:  0 раз

Полного источника не было: Никогда

   
 
Автор Сообщение

sss777sss ®

Пол: Не указан

Стаж: 4 месяца 6 дней

Сообщений: 351

Создавать темы 18-Мар-2019 13:07

[Цитировать]

Скажи правду
Год выпуска: 2019
Производство: Star Media
Жанр: драма
Продолжительность: ~00:50:00 серия
Субтитры: нет
Режиссёр: Андрей Эшпай
В ролях: Виктория Исакова, Аглая Шиловская, Павел Трубинер, Гоша Куценко, Зоя Кайдановская, Алёна Бабенко, Игорь Гордин, Инга Оболдина, Евгения Симонова, Алексей Фатеев, Михаил Филиппов, Евгения Уралова, Полина Лазарева, Ирина Бякова, Анна Синякина, Максим Карушев
Описание: Российская версия «Скажи правду» - адаптация формата «Доктор Фостер» (2015, Великобритания). После пятнадцати лет счастливой семейной жизни Ксения начинает подозревать своего мужа в измене. Мимолётная мысль постепенно перерастает в навязчивую идею, заставляя женщину провести собственное расследование. В поиске правды Ксения заходит так далеко, что ставит под угрозу свою карьеру и отношения со всеми, кто ей дорог. Но пути назад уже нет…

Реклама: Нет.
Кинопоиск
Все раздачи сериала
Sample
Качество: WEBRip 1080p - Getty
Формат: MKV
Видео кодек: H.264
Аудио кодек: AC3
Видео: MPEG4 AVC Video, H264, 16:9, 1920x1080, 25 fps, ~5100 kbps, 0.098 bit/pixel
Аудио: AC3 Dolby Digital, 48.0 kHz, 2/0 (L,R) ch, 192 kbps

Внимание! Раздача ведётся путём добавления новых серий

Раздача ведётся путём добавления новых серий, при каждом добавлении создаётся новый торрент. Чтобы начать докачку новой серии, пользователям необходимо сделать следующее:
- Остановить скачивание.
- Удалить старый торрент у себя из клиента (старые серии удалять не надо).
- Скачать новый торрент и запустить его у себя в клиенте вместо старого, при этом указать клиенту путь в старую папку куда и должно происходить скачивание новых серий.
Ваш клиент при этом должен произвести хеширование (проверку) старой папки (если не производит сам - помогите ему сделать это), и будет докачивать только те серии которых у вас ещё нет. Старые серии при этом не удаляются, а продолжают раздаваться!
Если вы уже удалили старые серии, то предотвратить повторную закачку старых серий можно, отжав галочку в соответствующих местах при запуске нового торрента. По возможности, желательно не удалять старые серии как можно дольше, чтобы релизер не столько продолжал раздавать старые серии, а смог сконцентрироваться на новых.

MI

General
Unique ID : 240350436263276499552375868867157863270 (0xB4D1CF6B88DC7DAEA26C7F351292AB66)
Complete name : D:\Skazhi.pravdu.2019.WEB-DL.(1080p).Getty\Skazhi.pravdu.e01.2019.WEB-DL.(1080p).Getty.mkv
Format : Matroska
Format version : Version 4 / Version 2
File size : 1.87 GiB
Duration : 50 min 30 s
Overall bit rate : 5 293 kb/s
Movie name : Skazhi.pravdu.e01.2019.WEB-DL.(1080p).Getty
Encoded date : UTC 2019-03-10 22:23:04
Writing application : mkvmerge v7.8.0 ('River Man') 32bit built on Mar 27 2015 16:18:02
Writing library : libebml v1.3.1 + libmatroska v1.4.2
Video
ID : 1
Format : AVC
Format/Info : Advanced Video Codec
Format profile : High@L4
Format settings : CABAC / 4 Ref Frames
Format settings, CABAC : Yes
Format settings, ReFrames : 4 frames
Codec ID : V_MPEG4/ISO/AVC
Duration : 50 min 30 s
Bit rate : 5 099 kb/s
Width : 1 920 pixels
Height : 1 080 pixels
Display aspect ratio : 16:9
Frame rate mode : Constant
Frame rate : 25.000 FPS
Color space : YUV
Chroma subsampling : 4:2:0
Bit depth : 8 bits
Scan type : Progressive
Bits/(Pixel*Frame) : 0.098
Stream size : 1.80 GiB (96%)
Default : Yes
Forced : No
Audio
ID : 2
Format : AC-3
Format/Info : Audio Coding 3
Codec ID : A_AC3
Duration : 50 min 30 s
Bit rate mode : Constant
Bit rate : 192 kb/s
Channel(s) : 2 channels
Channel positions : Front: L R
Sampling rate : 48.0 kHz
Frame rate : 31.250 FPS (1536 SPF)
Bit depth : 16 bits
Compression mode : Lossy
Stream size : 69.4 MiB (4%)
Service kind : Complete Main
Default : Yes
Forced : No

Скриншоты


[cybertorrent.ru].t456.torrent 
Торрент: Зарегистрирован [ 2019-03-18 13:08 ] · CBF488A0339FAE0E8BD4D714A09A764CF63F210F

Скачать .torrent

Скачать

72 KB

Статус: проверено
Скачан: 0 раз
Размер: 14,19 GB
terms.php
[Профиль] [ЛС]
Показать сообщения:    
Ответить на тему

Текущее время: 19-Июл 01:39

Часовой пояс: UTC ± 0



Вы не можете начинать темы
Вы не можете отвечать на сообщения
Вы не можете редактировать свои сообщения
Вы не можете удалять свои сообщения
Вы не можете голосовать в опросах
Вы не можете прикреплять файлы к сообщениям
Вы можете скачивать файлы