Скажи правду / Серии: 1-8 из 8 (Андрей Эшпай) [2019, драма, WEBRip]

Ответить на тему
Статистика раздачи
Размер:  4,69 GB   |    Зарегистрирован:  5 месяцев   |    Скачан:  0 раз

Полного источника не было: Никогда

   
 
Автор Сообщение

sss777sss ®

Пол: Не указан

Стаж: 5 месяцев 6 дней

Сообщений: 401

Создавать темы 18-Мар-2019 13:07

[Цитировать]

Скажи правду
Год выпуска: 2019
Производство: Star Media
Жанр: драма
Продолжительность: ~00:50:00 серия
Субтитры: нет
Режиссёр: Андрей Эшпай
В ролях: Виктория Исакова, Аглая Шиловская, Павел Трубинер, Гоша Куценко, Зоя Кайдановская, Алёна Бабенко, Игорь Гордин, Инга Оболдина, Евгения Симонова, Алексей Фатеев, Михаил Филиппов, Евгения Уралова, Полина Лазарева, Ирина Бякова, Анна Синякина, Максим Карушев
Описание: Российская версия «Скажи правду» - адаптация формата «Доктор Фостер» (2015, Великобритания). После пятнадцати лет счастливой семейной жизни Ксения начинает подозревать своего мужа в измене. Мимолётная мысль постепенно перерастает в навязчивую идею, заставляя женщину провести собственное расследование. В поиске правды Ксения заходит так далеко, что ставит под угрозу свою карьеру и отношения со всеми, кто ей дорог. Но пути назад уже нет…

Реклама: Нет.
Кинопоиск
Все раздачи сериала
Sample
Качество: WEBRip - 25Kuzmich
Формат: AVI
Видео кодек: XviD
Аудио кодек: AC3
Видео: 720x400 (1.80:1), 25 fps, XviD ~1500 kbps avg, 0.203 bit/pixel
Аудио: 48.0 kHz, AC3 Dolby Digital, 2/0 (L,R) ch, ~ 192 kbps

Внимание! Раздача ведётся путём добавления новых серий

Раздача ведётся путём добавления новых серий, при каждом добавлении создаётся новый торрент. Чтобы начать докачку новой серии, пользователям необходимо сделать следующее:
- Остановить скачивание.
- Удалить старый торрент у себя из клиента (старые серии удалять не надо).
- Скачать новый торрент и запустить его у себя в клиенте вместо старого, при этом указать клиенту путь в старую папку куда и должно происходить скачивание новых серий.
Ваш клиент при этом должен произвести хеширование (проверку) старой папки (если не производит сам - помогите ему сделать это), и будет докачивать только те серии которых у вас ещё нет. Старые серии при этом не удаляются, а продолжают раздаваться!
Если вы уже удалили старые серии, то предотвратить повторную закачку старых серий можно, отжав галочку в соответствующих местах при запуске нового торрента. По возможности, желательно не удалять старые серии как можно дольше, чтобы релизер не столько продолжал раздавать старые серии, а смог сконцентрироваться на новых.

MI

General
Complete name : D:\Skazhi.pravdu.2019.WEB-DLRip.25Kuzmich\Skazhi.pravdu.e01.WEB-DLRip.25Kuzmich.avi
Format : AVI
Format/Info : Audio Video Interleave
File size : 600 MiB
Duration : 50 min 31 s
Overall bit rate : 1 661 kb/s
Writing application : VirtualDubMod 1.5.10.3 | www.virtualdub-fr.org || (build 2550/release)
Writing library : VirtualDubMod build 2550/release
Video
ID : 0
Format : MPEG-4 Visual
Format profile : Advanced Simple@L5
Format settings : BVOP1
Format settings, BVOP : 1
Format settings, QPel : No
Format settings, GMC : No warppoints
Format settings, Matrix : Default (MPEG)
Codec ID : XVID
Codec ID/Hint : XviD
Duration : 50 min 31 s
Bit rate : 1 459 kb/s
Width : 720 pixels
Height : 400 pixels
Display aspect ratio : 16:9
Frame rate : 25.000 FPS
Color space : YUV
Chroma subsampling : 4:2:0
Bit depth : 8 bits
Scan type : Progressive
Compression mode : Lossy
Bits/(Pixel*Frame) : 0.203
Stream size : 527 MiB (88%)
Writing library : XviD 73
Audio
ID : 1
Format : AC-3
Format/Info : Audio Coding 3
Codec ID : 2000
Duration : 50 min 31 s
Bit rate mode : Constant
Bit rate : 192 kb/s
Channel(s) : 2 channels
Channel positions : Front: L R
Sampling rate : 48.0 kHz
Frame rate : 31.250 FPS (1536 SPF)
Bit depth : 16 bits
Compression mode : Lossy
Stream size : 69.4 MiB (12%)
Alignment : Split accross interleaves
Interleave, duration : 40 ms (1.00 video frame)
Interleave, preload duratio : 500 ms
Service kind : Complete Main

Скриншоты


[cybertorrent.ru].t457.torrent 
Торрент: Зарегистрирован [ 2019-03-18 13:08 ] · 00EC10CF8EFEA545229450293F2F708938BBCF32

Скачать .torrent

Скачать

24 KB

Статус: проверено
Скачан: 0 раз
Размер: 4,69 GB
terms.php
[Профиль] [ЛС]
Показать сообщения:    
Ответить на тему

Текущее время: 18-Авг 23:23

Часовой пояс: UTC ± 0



Вы не можете начинать темы
Вы не можете отвечать на сообщения
Вы не можете редактировать свои сообщения
Вы не можете удалять свои сообщения
Вы не можете голосовать в опросах
Вы не можете прикреплять файлы к сообщениям
Вы можете скачивать файлы