Начни сначала / Second Act (Питер Сигал / Peter Segal) [2018, США, драма, мелодрама, комедия, WEB-DLRip] MVO (HDRezka Studio)

Ответить на тему
Статистика раздачи
Размер:  1,44 GB   |    Зарегистрирован:  2 месяца 28 дней   |    Скачан:  0 раз

Полного источника не было: Никогда

   
 
Автор Сообщение

солнышко ®

Пол: Не указан

Стаж: 3 месяца 3 дня

Сообщений: 350

Создавать темы 18-Мар-2019 13:07

[Цитировать]

Начни сначала / Second Act
«Ее таланты - настоящие. А резюме - нет»
- Год выхода: 2018
Страна: США
Жанр: драма, мелодрама, комедия
Продолжительность: 01:43:46
Перевод: Любительский (многоголосый закадровый) HDRezka Studio
Субтитры: нет-Режиссер:
Питер Сигал / Peter Segal-В ролях:
Дженнифер Лопес, Ванесса Энн Хадженс, Леа Ремини, Трит Уильямс, Майло Вентимилья, Аннали Эшфорд, Шарлин Йи, Алан Айзенберг, Фредди Строма, Дэйв Фоли-О фильме:
Когда Майя уже перестала надеяться, что ее мечты осуществятся, она случайно получает работу в большой корпорации. Теперь у нее есть шанс доказать снобам с Мэдисон Авеню, что врожденный талант и блестящий креатив так же важны, как и диплом престижного университета. И не имеет значения, что у тебя за спиной, — ведь никогда не поздно начать сначала!-Релиз групп | | IMDB | КиноПоиск | Сэмпл |-Качество: WEB-DLRip
Формат: AVI
Видео: 720x304 (2.37:1), 24.000 fps, XviD build 67 ~1789 kbps avg, 0.34 bit/pixel
Аудио: 48 kHz, AC3 Dolby Digital, 2/0 (L,R) ch, ~192 kbps avg-

Скриншоты

-

MediaInfo

Код:Полное имя : D:\Na4ni_sna4ala_2018_WEB-DLRip_MVO_by_Dalemake.avi
Формат : AVI
Формат/Информация : Audio Video Interleave
Размер файла : 1,44 Гбайт
Продолжительность : 1 ч. 43 м.
Общий поток : 1991 Кбит/сек
Программа кодирования : VirtualDubMod 1.5.10.3 | www.virtualdub-fr.org || (build 2550/release)
Библиотека кодирования : VirtualDubMod build 2550/release
Видео
Идентификатор : 0
Формат : MPEG-4 Visual
Профиль формата : Advanced Simple@L5
Параметр BVOP формата : 1
Параметр QPel формата : Нет
Параметр GMC формата : Без точки перехода
Параметр матрицы формата : Выборочная
Идентификатор кодека : XVID
Идентификатор кодека/Подсказка : XviD
Продолжительность : 1 ч. 43 м.
Битрейт : 1790 Кбит/сек
Ширина : 720 пикселей
Высота : 304 пикселя
Соотношение сторон : 2,35:1
Частота кадров : 24,000 кадра/сек
Цветовое пространство : YUV
Субдискретизация насыщенности : 4:2:0
Битовая глубина : 8 бит
Тип развёртки : Прогрессивная
Метод сжатия : С потерями
Бит/(Пиксели*Кадры) : 0.341
Размер потока : 1,30 Гбайт (90%)
Библиотека кодирования : XviD 67
Аудио
Идентификатор : 1
Формат : AC-3
Формат/Информация : Audio Coding 3
Расширение режима : CM (complete main)
Параметр Endianness формата : Big
Идентификатор кодека : 2000
Продолжительность : 1 ч. 43 м.
Вид битрейта : Постоянный
Битрейт : 192 Кбит/сек
Каналы : 2 канала
Расположение каналов : Front: L R
Частота : 48,0 КГц
Метод сжатия : С потерями
Размер потока : 143 Мбайт (10%)
Выравнивание : Разделение по промежуткам
Продолжительность промежутка : 42 мс. (1,00 видеокадр)
Время предзагрузки промежутка : 500 мс.
-При появлении проф. перевода рип будет перезалит!-
[cybertorrent.ru].t459.torrent 
Торрент: Зарегистрирован [ 2019-03-18 13:08 ] · 0A87160D1306579C540996856B75B81E16169A27

Скачать .torrent

Скачать

15 KB

Статус: проверено
Скачан: 0 раз
Размер: 1,44 GB
terms.php
[Профиль] [ЛС]
Показать сообщения:    
Ответить на тему

Текущее время: 16-Июн 08:31

Часовой пояс: UTC ± 0



Вы не можете начинать темы
Вы не можете отвечать на сообщения
Вы не можете редактировать свои сообщения
Вы не можете удалять свои сообщения
Вы не можете голосовать в опросах
Вы не можете прикреплять файлы к сообщениям
Вы можете скачивать файлы