Стертая личность / Boy Erased (Джоэл Эдгертон / Joel Edgerton) [2018, США, драма, биография, BDRip] MVO (HDRezka Studio) + Original (Eng) + Sub (Rus, Eng)

Ответить на тему
Статистика раздачи
Размер:  1,46 GB   |    Зарегистрирован:  1 месяц 6 дней   |    Скачан:  0 раз

Полного источника не было: Никогда

   
 
Автор Сообщение

солнышко ®

Пол: Не указан

Стаж: 1 месяц 12 дней

Сообщений: 188

Создавать темы 18-Мар-2019 13:07

[Цитировать]

Стертая личность / Boy Erased
«Суть нельзя изменить»
- Год выхода: 2018
Страна: Австралия, США
Жанр: драма, биография
Продолжительность: 01:54:46
Перевод: Любительский (многоголосый закадровый) HDRezka Studio
Субтитры: Русские (FOCS), Английские (полные, SDH) (внешние .srt*)
Оригинальная аудиодорожка: Английская-Режиссер:
Джоэл Эдгертон / Joel Edgerton-В ролях:
Лукас Хеджес, Николь Кидман, Расселл Кроу, Джоэл Эдгертон, Ксавье Долан, Мэдлин Клайн, Виктор МакКэй, Дэвид Джозеф Крэйг, Трой Сиван, Эмили Хинклер, Девин Майкл, Мэтт Бурк-О фильме:
История сына баптистского пастора из консервативной глубинки, который ещё подростком обнаруживает свою гомосексуальность. По настоянию родителей Гаррард соглашается пройти «исправительную» терапию, чтобы не потерять своих близких, свою веру и место в обществе.-Релиз групп | | IMDB | КиноПоиск | Сэмпл |-Качество: BDRip [Boy.Erased.2018.COMPLETE.BLURAY-LAZERS]
Формат: AVI
Видео: 720x384 (1.88:1), 23.976 fps, XviD build 67 ~1424 kbps avg, 0.21 bit/pixel
Аудио #1: 48 kHz, AC3 Dolby Digital, 2/0 (L,R) ch, ~192 kbps avg (RUS)
Аудио #2: 48 kHz, AC3 Dolby Digital, 2/0 (L,R) ch, ~192 kbps avg (ENG)-

Скриншоты

-

MediaInfo

Код:Полное имя : D:\Stertaya_lichnost`_2018_BDRip_MVO_by_Dalemake.avi
Формат : AVI
Формат/Информация : Audio Video Interleave
Размер файла : 1,46 Гбайт
Продолжительность : 1 ч. 54 м.
Общий поток : 1823 Кбит/сек
Программа кодирования : VirtualDubMod 1.5.10.3 | www.virtualdub-fr.org || (build 2550/release)
Библиотека кодирования : VirtualDubMod build 2550/release
Видео
Идентификатор : 0
Формат : MPEG-4 Visual
Профиль формата : Advanced Simple@L5
Параметр BVOP формата : 1
Параметр QPel формата : Нет
Параметр GMC формата : Без точки перехода
Параметр матрицы формата : Выборочная
Идентификатор кодека : XVID
Идентификатор кодека/Подсказка : XviD
Продолжительность : 1 ч. 54 м.
Битрейт : 1425 Кбит/сек
Ширина : 720 пикселей
Высота : 384 пикселя
Соотношение сторон : 1,85:1
Частота кадров : 23,976 кадра/сек
Цветовое пространство : YUV
Субдискретизация насыщенности : 4:2:0
Битовая глубина : 8 бит
Тип развёртки : Прогрессивная
Метод сжатия : С потерями
Бит/(Пиксели*Кадры) : 0.215
Размер потока : 1,14 Гбайт (78%)
Библиотека кодирования : XviD 67
Аудио #1
Идентификатор : 1
Формат : AC-3
Формат/Информация : Audio Coding 3
Расширение режима : CM (complete main)
Параметр Endianness формата : Big
Идентификатор кодека : 2000
Продолжительность : 1 ч. 54 м.
Вид битрейта : Постоянный
Битрейт : 192 Кбит/сек
Каналы : 2 канала
Расположение каналов : Front: L R
Частота : 48,0 КГц
Метод сжатия : С потерями
Размер потока : 158 Мбайт (11%)
Выравнивание : Разделение по промежуткам
Продолжительность промежутка : 42 мс. (1,00 видеокадр)
Время предзагрузки промежутка : 500 мс.
Аудио #2
Идентификатор : 2
Формат : AC-3
Формат/Информация : Audio Coding 3
Расширение режима : CM (complete main)
Параметр Endianness формата : Big
Идентификатор кодека : 2000
Продолжительность : 1 ч. 54 м.
Вид битрейта : Постоянный
Битрейт : 192 Кбит/сек
Каналы : 2 канала
Расположение каналов : Front: L R
Частота : 48,0 КГц
Метод сжатия : С потерями
Размер потока : 158 Мбайт (11%)
Выравнивание : Разделение по промежуткам
Продолжительность промежутка : 42 мс. (1,00 видеокадр)
Время предзагрузки промежутка : 500 мс.
-При появлении проф. перевода рип будет перезалит!-

Если ваш рейтинг упадет ниже 0,3, вы не сможете скачивать торренты! Подробнее о рейтинге.

[cybertorrent.ru].t460.torrent 
Торрент: Зарегистрирован [ 2019-03-18 13:08 ] · C291ADD7E38DB0B7AADA2245B7CC531DF34941FA

Скачать .torrent

Скачать

16 KB

Статус: проверено
Скачан: 0 раз
Размер: 1,46 GB
terms.php
[Профиль] [ЛС]
Показать сообщения:    
Ответить на тему

Текущее время: 24-Апр 17:47

Часовой пояс: UTC ± 0



Вы не можете начинать темы
Вы не можете отвечать на сообщения
Вы не можете редактировать свои сообщения
Вы не можете удалять свои сообщения
Вы не можете голосовать в опросах
Вы не можете прикреплять файлы к сообщениям
Вы можете скачивать файлы