Аквамен / Aquaman (Джеймс Ван / James Wan) [2018, США, Австралия, фантастика, фэнтези, боевик, приключения, WEBRip-AVC] [Open Matte] DUB + Sub Rus Eng + Original Eng

Ответить на тему
Статистика раздачи
Размер:  2,94 GB   |    Зарегистрирован:  4 месяца   |    Скачан:  0 раз

Полного источника не было: Никогда

   
 
Автор Сообщение

солнышко ®

Пол: Не указан

Стаж: 4 месяца 6 дней

Сообщений: 461

Создавать темы 18-Мар-2019 13:07

[Цитировать]

Аквамен / Aquaman / Open Matte
Страна: США, Австралия
Жанр: фантастика, фэнтези, боевик, приключения
Год выпуска: 2018
Продолжительность: 02:23:18
Перевод: Профессиональный (дублированный) iTunes
Субтитры: русские, английские
Оригинальная аудиодорожка: английский
Режиссер: Джеймс Ван / James Wan
В ролях: Джейсон Момоа, Эмбер Хёрд, Дольф Лундгрен, Николь Кидман, Джули Эндрюс, Патрик Уилсон, Уиллем Дефо, Грэм МакТавиш, Талия Джейд, Джимон Хонсу, Темуэра Моррисон, Майкл Бич
Описание: Артур Карри был сыном работника маяка по имени Том Карри и женщины по имени Атланна. Артур уже в подростковом возрасте демонстрировал невероятную силу и скорость, а также возможность дышать под водой и разговаривать с рыбами. Будучи при смерти, Атланна раскрыла мальчику правду: она была Королевой Атлантиды, находившейся в изгнании, и пообещала, что однажды Артур станет правителем семи морей. Его отец дал ему образование и научил управлять своими возможностями, что в конечном итоге помогло ему стать героем по имени Аквамен.
Доп. информация: Исходник с онлайн-кинотеатра
Различия BD и WEBRip - разное наполнение кадра - 16:9 (1.78:1)
Фильмы в Fullscreen (4:3) и Open Matte (16:9) форматах
Сэмпл: http://multi-up.com/1226127
Качество видео: WEBRip-AVC Исходник
Формат видео: MKV
Видео: MPEG-4 AVC/H.264 / 2170 kbps / 1088x612 / 23.976 fps
Аудио 1: DUB (Rus) / AC3 / 6 ch / 384 kbps / 48 kHz
Аудио 2: Original (Eng) / AC3 / 6 ch / 384 kbps / 48 kHz
Формат субтитров: softsub (SRT)
Доп. информация о субтитрах: Русские (forced, full), Английские (full)
#Сохранены оригинальные чаптеры как на WEB-DL-

Мои раздачи фильмов киновселенной DC

Бэтмен против Супермена: На заре справедливости (2016) HDRip-AVC [Расширенная версия / Ultimate Edition] [IMAX Version] MVO + AVO + Sub Rus Eng + Original Eng
http://cybertorrent.ru/forum/viewtopic.php?t=5428209
-

Log

x264 [info]: frame I:1727 Avg QP:17.90 size: 64926
x264 [info]: frame P:59061 Avg QP:21.83 size: 20221
x264 [info]: frame B:145358 Avg QP:24.87 size: 7057

MediaInfo

General
Unique ID : 235882211698155347645949104807029831370 (0xB17542F0BB5B173FB46141CC6A74F6CA)
Complete name : G:\Temp\Аквамен (2018) WEBRip-AVC [Open Matte].mkv
Format : Matroska
Format version : Version 2
File size : 2.94 GiB
Duration : 2 h 23 min
Overall bit rate : 2 940 kb/s
Movie name : Аквамен / Aquaman (2018) [Open Matte]
Encoded date : UTC 2019-03-11 23:54:34
Writing application : mkvmerge v5.5.0 ('Healer') built on Apr 24 2012 23:47:03
Writing library : libebml v1.2.3 + libmatroska v1.3.0
Cover : Yes
Attachments : cover.jpg
Video
ID : 1
Format : AVC
Format/Info : Advanced Video Codec
Format profile : High@L3.1
Format settings : CABAC / 8 Ref Frames
Format settings, CABAC : Yes
Format settings, ReFrames : 8 frames
Codec ID : V_MPEG4/ISO/AVC
Duration : 2 h 23 min
Bit rate : 2 170 kb/s
Width : 1 088 pixels
Height : 612 pixels
Display aspect ratio : 16:9
Frame rate mode : Constant
Frame rate : 23.976 (24000/1001) FPS
Color space : YUV
Chroma subsampling : 4:2:0
Bit depth : 8 bits
Scan type : Progressive
Bits/(Pixel*Frame) : 0.136
Stream size : 2.12 GiB (72%)
Title : WEBRip (AVC) / MPEG-4 AVC/H.264 / 2170 kbps / 1088x612 / 23.976 fps
Writing library : x264 core 146 r2538 121396c
Encoding settings : cabac=1 / ref=8 / deblock=1:0:0 / analyse=0x3:0x113 / me=umh / subme=10 / psy=1 / psy_rd=1.00:0.00 / mixed_ref=1 / me_range=32 / chroma_me=1 / trellis=2 / 8x8dct=1 / cqm=0 / deadzone=21,11 / fast_pskip=0 / chroma_qp_offset=-2 / threads=6 / lookahead_threads=1 / sliced_threads=0 / nr=0 / decimate=1 / interlaced=0 / bluray_compat=0 / constrained_intra=0 / bframes=9 / b_pyramid=2 / b_adapt=2 / b_bias=0 / direct=3 / weightb=1 / open_gop=0 / weightp=2 / keyint=250 / keyint_min=23 / scenecut=40 / intra_refresh=0 / rc_lookahead=50 / rc=2pass / mbtree=1 / bitrate=2170 / ratetol=1.0 / qcomp=0.60 / qpmin=0 / qpmax=69 / qpstep=4 / cplxblur=20.0 / qblur=0.5 / vbv_maxrate=14000 / vbv_bufsize=14000 / nal_hrd=none / filler=0 / ip_ratio=1.40 / aq=1:1.00
Language : Russian
Default : Yes
Forced : Yes
Audio #1
ID : 2
Format : AC-3
Format/Info : Audio Coding 3
Commercial name : Dolby Digital
Codec ID : A_AC3
Duration : 2 h 23 min
Bit rate mode : Constant
Bit rate : 384 kb/s
Channel(s) : 6 channels
Channel layout : L R C LFE Ls Rs
Sampling rate : 48.0 kHz
Frame rate : 31.250 FPS (1536 SPF)
Bit depth : 16 bits
Compression mode : Lossy
Delay relative to video : 2 ms
Stream size : 394 MiB (13%)
Title : DUB (Rus) / AC3 / 6 ch / 384 kbps / 48 kHz
Language : Russian
Service kind : Complete Main
Default : Yes
Forced : Yes
Audio #2
ID : 3
Format : AC-3
Format/Info : Audio Coding 3
Commercial name : Dolby Digital
Codec ID : A_AC3
Duration : 2 h 23 min
Bit rate mode : Constant
Bit rate : 384 kb/s
Channel(s) : 6 channels
Channel layout : L R C LFE Ls Rs
Sampling rate : 48.0 kHz
Frame rate : 31.250 FPS (1536 SPF)
Bit depth : 16 bits
Compression mode : Lossy
Delay relative to video : 2 ms
Stream size : 394 MiB (13%)
Title : Original (Eng) / AC3 / 6 ch / 384 kbps / 48 kHz
Language : English
Service kind : Complete Main
Default : No
Forced : No
Text #1
ID : 4
Format : UTF-8
Codec ID : S_TEXT/UTF8
Codec ID/Info : UTF-8 Plain Text
Title : Forced (Rus) / S_TEXT/UTF8
Language : Russian
Default : Yes
Forced : Yes
Text #2
ID : 5
Format : UTF-8
Codec ID : S_TEXT/UTF8
Codec ID/Info : UTF-8 Plain Text
Title : Full (Rus) / S_TEXT/UTF8
Language : Russian
Default : No
Forced : No
Text #3
ID : 6
Format : UTF-8
Codec ID : S_TEXT/UTF8
Codec ID/Info : UTF-8 Plain Text
Title : Full (Eng) / S_TEXT/UTF8
Language : English
Default : No
Forced : No
Menu
00:00:00.000 : en:1
00:11:07.271 : en:2
00:22:09.599 : en:3
00:30:08.995 : en:4
00:40:26.696 : en:5
00:50:22.625 : en:6
01:01:13.734 : en:7
01:08:55.070 : en:8
01:21:39.250 : en:9
01:34:48.414 : en:10
01:39:35.409 : en:11
01:49:30.796 : en:12
02:01:34.519 : en:13
02:10:17.875 : en:14

Cравнения с другими раздачами

Данный релиз

WEB-DLRip-AVC

Скриншот c названием фильма

Скриншоты

Цитата:
  • Звуковые дорожки и субтитры взяты из раздачи пользователя Shelena
[cybertorrent.ru].t472.torrent 
Торрент: Зарегистрирован [ 2019-03-18 13:08 ] · 4FE88C9D876EE9531FDD8A80DEBED96AEAD206BF

Скачать .torrent

Скачать

15 KB

Статус: проверено
Скачан: 0 раз
Размер: 2,94 GB
terms.php
[Профиль] [ЛС]
Показать сообщения:    
Ответить на тему

Текущее время: 19-Июл 02:25

Часовой пояс: UTC ± 0



Вы не можете начинать темы
Вы не можете отвечать на сообщения
Вы не можете редактировать свои сообщения
Вы не можете удалять свои сообщения
Вы не можете голосовать в опросах
Вы не можете прикреплять файлы к сообщениям
Вы можете скачивать файлы