Реализация / Серии: 1-12 из 24 (Виктор Шкуратов) [2019, детектив, WEBRip 1080p]

Ответить на тему
Статистика раздачи
Размер:  25,5 GB   |    Зарегистрирован:  1 месяц 6 дней   |    Скачан:  0 раз

Полного источника не было: Никогда

   
 
Автор Сообщение

sss777sss ®

Пол: Не указан

Стаж: 1 месяц 12 дней

Сообщений: 140

Создавать темы 18-Мар-2019 13:07

[Цитировать]

Реализация
Год выпуска: 2019
Производство: Триикс Медиа
Жанр: детектив
Продолжительность: ~00:49:00 серия
Субтитры: нет
Режиссёр: Виктор Шкуратов
В ролях: Дмитрий Паламарчук, Эдуард Флёров, Кирилл Рубцов, Сергей Юшкевич, Михаил Тарабукин, Максим Дахненко, Алексей Красноцветов, Ирина Ларионова, Игорь Ключников, Сергей Жарков, Елена Вожакина, Андрей Терентьев, Роман Агеев, Кирилл Полухин, Сергей Уманов, Вячеслав Аркунов, Алексей Штукин, Наталия Вязовская, Степан Пивкин, Виталий Салий, Юлия Кудояр, Игорь Грабузов, Антон Сычёв, Кирилл Кузнецов, Антон Чернов, Артём Цыпин, Владимир Петров, Станислав Ткаченко, Александр Клемантович, Олег Метелев, Юрий Ковалёв, Ирина Горкунова, Вячеслав Гумеров, Татьяна Ермилова, Дмитрий Могучев, Александр Петров, Михаил Сидаш, Геннадий Меньшиков, Александр Кратиров
Описание: Опытного розыскника из Великого Новгорода с необычной фамилией Красавец (ударение на последний слог), после конфликта с криминальным бизнесменом, переводят на должность простого участкового в Центральный район Петербурга. Всё, что хочет теперь Красавец — это тихо и мирно дослужить до пенсии. Но каждый раз, неожиданно для себя, оказывается в эпицентре преступных событий. То он втянут в разборки между криминальным авторитетом и коллегами из УМВД, то ищет похищенного начальника главка, то ловит неуловимого киллера.

Реклама: Нет.
Кинопоиск
Все раздачи сериала
Sample
Качество: WEBRip 1080p - Nikolspup
Формат: MKV
Видео кодек: H.264
Аудио кодек: AC3
Видео: MPEG4 AVC Video, H264, 16:9, 1920x1080, 25 fps, ~6000 kbps, 0.116 bit/pixel
Аудио: AC3 Dolby Digital, 48.0 kHz, 2/0 (L,R) ch, 192 kbps

Внимание! Раздача ведётся путём добавления новых серий

Раздача ведётся путём добавления новых серий, при каждом добавлении создаётся новый торрент. Чтобы начать докачку новой серии, пользователям необходимо сделать следующее:
- Остановить скачивание.
- Удалить старый торрент у себя из клиента (старые серии удалять не надо).
- Скачать новый торрент и запустить его у себя в клиенте вместо старого, при этом указать клиенту путь в старую папку куда и должно происходить скачивание новых серий.
Ваш клиент при этом должен произвести хеширование (проверку) старой папки (если не производит сам - помогите ему сделать это), и будет докачивать только те серии которых у вас ещё нет. Старые серии при этом не удаляются, а продолжают раздаваться!
Если вы уже удалили старые серии, то предотвратить повторную закачку старых серий можно, отжав галочку в соответствующих местах при запуске нового торрента. По возможности, желательно не удалять старые серии как можно дольше, чтобы релизер не столько продолжал раздавать старые серии, а смог сконцентрироваться на новых.

MI

General
Unique ID : 187026003503036030862428738672270808982 (0x8CB3E5E6C5BA0B31893CC033FBA49796)
Complete name : D:\Realizatsiya.2018.WEB-DL.(1080p).Nikolspup\Realizatsiya.(01.seriya).2018.WEB-DL.(1080p).Nikolspup.mkv
Format : Matroska
Format version : Version 4 / Version 2
File size : 2.14 GiB
Duration : 49 min 42 s
Overall bit rate mode : Constant
Overall bit rate : 6 167 kb/s
Encoded date : UTC 2019-03-11 18:10:36
Writing application : mkvmerge v7.8.0 ('River Man') 32bit built on Mar 27 2015 16:18:02
Writing library : libebml v1.3.1 + libmatroska v1.4.2
Video
ID : 1
Format : AVC
Format/Info : Advanced Video Codec
Format profile : High@L4.1
Format settings : 2 Ref Frames
Format settings, CABAC : No
Format settings, ReFrames : 2 frames
Codec ID : V_MPEG4/ISO/AVC
Duration : 49 min 42 s
Bit rate mode : Constant
Bit rate : 6 000 kb/s
Width : 1 920 pixels
Height : 1 080 pixels
Display aspect ratio : 16:9
Frame rate mode : Constant
Frame rate : 25.000 FPS
Standard : PAL
Color space : YUV
Chroma subsampling : 4:2:0
Bit depth : 8 bits
Scan type : Progressive
Bits/(Pixel*Frame) : 0.116
Stream size : 2.07 GiB (97%)
Default : Yes
Forced : No
Color range : Limited
Color primaries : BT.709
Transfer characteristics : BT.709
Matrix coefficients : BT.709
Audio
ID : 2
Format : AC-3
Format/Info : Audio Coding 3
Codec ID : A_AC3
Duration : 49 min 42 s
Bit rate mode : Constant
Bit rate : 192 kb/s
Channel(s) : 2 channels
Channel positions : Front: L R
Sampling rate : 48.0 kHz
Frame rate : 31.250 FPS (1536 SPF)
Bit depth : 16 bits
Compression mode : Lossy
Stream size : 68.3 MiB (3%)
Language : Russian
Service kind : Complete Main
Default : Yes
Forced : No

Скриншоты


Если ваш рейтинг упадет ниже 0,3, вы не сможете скачивать торренты! Подробнее о рейтинге.

[cybertorrent.ru].t475.torrent 
Торрент: Зарегистрирован [ 2019-03-18 13:08 ] · 93253128AB2D7832E6A514A4767B6A38EF38A3B6

Скачать .torrent

Скачать

129 KB

Статус: проверено
Скачан: 0 раз
Размер: 25,5 GB
terms.php
[Профиль] [ЛС]
Показать сообщения:    
Ответить на тему

Текущее время: 24-Апр 18:23

Часовой пояс: UTC ± 0



Вы не можете начинать темы
Вы не можете отвечать на сообщения
Вы не можете редактировать свои сообщения
Вы не можете удалять свои сообщения
Вы не можете голосовать в опросах
Вы не можете прикреплять файлы к сообщениям
Вы можете скачивать файлы