Операция "Ы" и другие приключения Шурика (Леонид Гайдай) [1965, комедия, киноальманах, BDRip]

Ответить на тему
Статистика раздачи
Размер:  745 MB   |    Зарегистрирован:  1 месяц 6 дней   |    Скачан:  0 раз

Полного источника не было: Никогда

   
 
Автор Сообщение

edich ®

Пол: Не указан

Стаж: 1 месяц 12 дней

Сообщений: 75

Создавать темы 18-Мар-2019 13:07

[Цитировать]

Операция "Ы" и другие приключения Шурика- Страна: СССР
Жанр: комедия, киноальманах
Год выпуска: 1965
Продолжительность: 01:34:33-Режиссёр: Леонид Гайдай-В ролях: Александр Демьяненко, Алексей Смирнов, Наталья Селезнёва, Георгий Вицин, Евгений Моргунов, Юрий Никулин, Михаил Пуговкин, Владимир Басов, Владимир Раутбарт, Виктор Павлов, Владимир Владиславский, Мария Кравчуновская, Эммануил Геллер, Рина Зелёная, Виктор Уральский, Гусейн Ахундов, Валентина Березуцкая, Светлана Агеева, Валерий Носик, Георгий Георгиу, Наталья Гицерот, Зоя Фёдорова, Людмила Ковалец, Сергей Жирнов, Виктор Зозулин, Владимир Комаровский, Татьяна Градова, Владимир Гуляев, Николай Казаков, Елена Судакова, Виктор Гераскин, Владимир Приходько, Иван Турченков, Нина Делекторская, Владимир Удалов, Игорь Суровцев, Валентина Печорина-Описание: Фильм состоит из трех киноновелл, объединенных фигурой главного героя, - Шурика, попадающего в самые невероятные ситуации. В «Напарнике» Шурик сражается с хулиганом Верзилой; в «Наваждении» весьма оригинальным способом готовится к экзамену; в «Операции «Ы» предотвращает «ограбление века», на которое идет знаменитая тройка - Балбес, Трус и Бывалый..-Исходник: Blu-ray Disc 1080p
Качество видео: BDRip | Сэмпл |
Формат видео: AVI
Видео: 640x480 (1.33:1), 23.976 fps, XviD build 73 ~963 kbps avg, 0.13 bit/pixel
Аудио: 48 kHz, MPEG Layer 3, 2 ch, ~128.00 kbps avg-

MediaInfo

Код:Общее
Полное имя : D:\Мои рипы\Operatsiya.Y.I.Drugie.Priklyucheniya.Shurika.1965.BDRip_by_Danres.avi
Формат : AVI
Формат/Информация : Audio Video Interleave
Размер файла : 745 Мбайт
Продолжительность : 1 ч. 34 м.
Общий поток : 1101 Кбит/сек
Программа кодирования : VirtualDubMod 1.5.10.3 | www.virtualdub-fr.org || (build 2550/release)
Библиотека кодирования : VirtualDubMod build 2550/release
Видео
Идентификатор : 0
Формат : MPEG-4 Visual
Профиль формата : Advanced Simple@L5
Настройки формата : BVOP2 / Custom Matrix
Параметр BVOP формата : 2
Параметр QPel формата : Нет
Параметр GMC формата : Без точки перехода
Параметр матрицы формата : Выборочная
Идентификатор кодека : XVID
Идентификатор кодека/Подсказка : XviD
Продолжительность : 1 ч. 34 м.
Битрейт : 964 Кбит/сек
Ширина : 640 пикселей
Высота : 480 пикселей
Соотношение сторон : 4:3
Частота кадров : 23,976 (24000/1001) кадра/сек
Цветовое пространство : YUV
Субдискретизация насыщенности : 4:2:0
Битовая глубина : 8 бит
Тип развёртки : Прогрессивная
Метод сжатия : С потерями
Бит/(Пиксели*Кадры) : 0.131
Размер потока : 652 Мбайт (88%)
Библиотека кодирования : XviD 73
Аудио
Идентификатор : 1
Формат : MPEG Audio
Версия формата : Version 1
Профиль формата : Layer 3
Идентификатор кодека : 55
Идентификатор кодека/Подсказка : MP3
Продолжительность : 1 ч. 34 м.
Вид битрейта : Постоянный
Битрейт : 128 Кбит/сек
Каналы : 2 канала
Частота : 48,0 КГц
Частота кадров : 41,667 кадра/сек (1152 SPF)
Метод сжатия : С потерями
Размер потока : 86,6 Мбайт (12%)
Выравнивание : Соединение по промежуткам
Продолжительность промежутка : 42 мс. (1,00 видеокадр)
Время предзагрузки промежутка : 504 мс.
Библиотека кодирования : LAME3.99r
Настройки программы : -m s -V 4 -q 2 -lowpass 17 -b 128

Скриншоты

--ДРУЗЬЯ! ПОЖАЛУЙСТА, НЕ УХОДИТЕ С РАЗДАЧИ КАК МОЖНО ДОЛЬШЕ!--

Если ваш рейтинг упадет ниже 0,3, вы не сможете скачивать торренты! Подробнее о рейтинге.

[cybertorrent.ru].t478.torrent 
Торрент: Зарегистрирован [ 2019-03-18 13:08 ] · 8F7F22D90676E5A79D0DEA242980F4C133C12614

Скачать .torrent

Скачать

15 KB

Статус: проверено
Скачан: 0 раз
Размер: 745 MB
terms.php
[Профиль] [ЛС]
Показать сообщения:    
Ответить на тему

Текущее время: 24-Апр 17:53

Часовой пояс: UTC ± 0



Вы не можете начинать темы
Вы не можете отвечать на сообщения
Вы не можете редактировать свои сообщения
Вы не можете удалять свои сообщения
Вы не можете голосовать в опросах
Вы не можете прикреплять файлы к сообщениям
Вы можете скачивать файлы