Две девицы на мели / Серии: 1-9 из ?? (Константин Смирнов) [2019, комедия, WEBRip 720p]

Ответить на тему
Статистика раздачи
Размер:  4,75 GB   |    Зарегистрирован:  4 месяца   |    Скачан:  0 раз

Полного источника не было: Никогда

   
 
Автор Сообщение

sss777sss ®

Пол: Не указан

Стаж: 4 месяца 6 дней

Сообщений: 351

Создавать темы 18-Мар-2019 13:07

[Цитировать]

Две девицы на мели
Год выпуска: 2019
Производство: телеканал ПЯТНИЦА
Жанр: комедия
Продолжительность: ~00:24:00 серия
Субтитры: нет
Режиссёр: Константин Смирнов
В ролях: Ольга Картункова, Алевтина Тукан, Владимир Сычёв, Арман Навасардян, Наталья Бочкарёва, Виктор Бычков, Никита Дювбанов, Гоша Куценко
Описание: Казалось бы, что общего между провинциалкой Олей и дочерью миллиардера Марго? Они обе хотят заработать много денег! Оля — приезжая простушка, которая едва сводит концы с концами. Марго — девушка из высшего общества, внезапно лишившаяся своего статуса и состояния. По иронии судьбы она вынуждена устроиться официанткой в кафе, где работает Оля. Вместе девушки начинают подумывать о своем прибыльном бизнесе. Тем более, что почти всё для этого у них есть. Всё, кроме денег. Но на одни чаевые дело не откроешь…

Реклама: Нет.
Кинопоиск
Все раздачи сериала
Sample
Качество: WEBRip 720p
Формат: MKV
Видео кодек: H.264
Аудио кодек: AC3
Видео: MPEG4 AVC Video, H264, 16:9, 1280x720, 25 fps, ~3000 kbps, 0.130 bit/pixel
Аудио: AC3, 48.0 kHz, 2/0 (L,R) ch, 192 kbps

Внимание! Раздача ведётся путём добавления новых серий

Раздача ведётся путём добавления новых серий, при каждом добавлении создаётся новый торрент. Чтобы начать докачку новой серии, пользователям необходимо сделать следующее:
- Остановить скачивание.
- Удалить старый торрент у себя из клиента (старые серии удалять не надо).
- Скачать новый торрент и запустить его у себя в клиенте вместо старого, при этом указать клиенту путь в старую папку куда и должно происходить скачивание новых серий.
Ваш клиент при этом должен произвести хеширование (проверку) старой папки (если не производит сам - помогите ему сделать это), и будет докачивать только те серии которых у вас ещё нет. Старые серии при этом не удаляются, а продолжают раздаваться!
Если вы уже удалили старые серии, то предотвратить повторную закачку старых серий можно, отжав галочку в соответствующих местах при запуске нового торрента. По возможности, желательно не удалять старые серии как можно дольше, чтобы релизер не столько продолжал раздавать старые серии, а смог сконцентрироваться на новых.

MI

General
Unique ID : 224310971949023112967069310778273113752 (0xA8C0B8C61F95F257BE5603B60DCF2698)
Complete name : D:\Две девицы на мели.2019.WEB-DL 720p\Две девицы на мели.s01e01.2019.WEB-DL 720p.mkv
Format : Matroska
Format version : Version 4 / Version 2
File size : 543 MiB
Duration : 23 min 52 s
Overall bit rate : 3 183 kb/s
Encoded date : UTC 2019-03-11 20:54:42
Writing application : mkvmerge v9.6.0 ('Slave To Your Mind') 64bit
Writing library : libebml v1.3.4 + libmatroska v1.4.5
Video
ID : 1
Format : AVC
Format/Info : Advanced Video Codec
Format profile : High@L3.1
Format settings : CABAC / 1 Ref Frames
Format settings, CABAC : Yes
Format settings, ReFrames : 1 frame
Format settings, GOP : M=1, N=12
Codec ID : V_MPEG4/ISO/AVC
Duration : 23 min 52 s
Bit rate : 2 989 kb/s
Width : 1 280 pixels
Height : 720 pixels
Display aspect ratio : 16:9
Frame rate mode : Constant
Frame rate : 25.000 FPS
Standard : Component
Color space : YUV
Chroma subsampling : 4:2:0
Bit depth : 8 bits
Scan type : Progressive
Bits/(Pixel*Frame) : 0.130
Stream size : 510 MiB (94%)
Default : Yes
Forced : No
Color range : Limited
Audio
ID : 2
Format : AC-3
Format/Info : Audio Coding 3
Codec ID : A_AC3
Duration : 23 min 52 s
Bit rate mode : Constant
Bit rate : 192 kb/s
Channel(s) : 2 channels
Channel positions : Front: L R
Sampling rate : 44.1 kHz
Frame rate : 28.711 FPS (1536 SPF)
Bit depth : 16 bits
Compression mode : Lossy
Stream size : 32.8 MiB (6%)
Service kind : Complete Main
Default : Yes
Forced : No

Скриншоты


[cybertorrent.ru].t479.torrent 
Торрент: Зарегистрирован [ 2019-03-18 13:08 ] · 2682D2C7419286D3EFFFAA9D22D9B163FD832C9D

Скачать .torrent

Скачать

25 KB

Статус: проверено
Скачан: 0 раз
Размер: 4,75 GB
terms.php
[Профиль] [ЛС]
Показать сообщения:    
Ответить на тему

Текущее время: 19-Июл 01:25

Часовой пояс: UTC ± 0



Вы не можете начинать темы
Вы не можете отвечать на сообщения
Вы не можете редактировать свои сообщения
Вы не можете удалять свои сообщения
Вы не можете голосовать в опросах
Вы не можете прикреплять файлы к сообщениям
Вы можете скачивать файлы