Папаши / Серии: 1-16 из 16 (Леонид Мазор) [2011, Россия, Украина, авантюрная комедия, DVB]

Ответить на тему
Статистика раздачи
Размер:  14,66 GB   |    Зарегистрирован:  5 месяцев 28 дней   |    Скачан:  0 раз

Полного источника не было: Никогда

   
 
Автор Сообщение

sss777sss ®

Пол: Не указан

Стаж: 6 месяцев 3 дня

Сообщений: 423

Создавать темы 18-Мар-2019 13:06

[Цитировать]

Папаши-Год выпуска: 2011
Страна: Россия, Украина
Производство: "Студия Квартал-95"
Жанр: авантюрная комедия
Продолжительность серии: ~ 00:50:00 серия
Субтитры: Украинские (неотключаемые)
-Режиссёр: Леонид Мазор
Продюсеры: Владимир Зеленский, Андрей Яковлев, Сергей Шефир, ...
Авторы сценария: Михаил Марфин, Леонид Мазор.
В ролях: Роман Мадянов, Сергей Газаров, Наталья Ноздрина, Татьяна Догилева, Дмитрий Мухамадеев, Валерий Афанасьев, Александр Пашутин, Александр Терешко, Ирина Бякова, Юлия Александрова, Игорь Войнаровский (II), Сергей Беляев, Любовь Германова, Валентин Смирнитский, Игорь Ларин (III), Татьяна Короткова, Евгений Бакалов, Ксения Черноскутова, Екатерина Зинченко, Александра Ровенских, Захар Ронжин, Сергей Неудачин, Виталий Альшанский, Федор Гапоненко, Алексей Ванин (II), Юрий Тарасов, Антон Батырев, Андрей Снежко, Виталий Кудрявцев, Константин Желдин, Юлия Галкина, Юлия Свежакова, Павел Ильин, Виктория Полторак, Евгения Волкова, Ирина Сушина, Валерий Трошин, Михаил Владимиров, Ольга Ергина, Павел Ворожцов-Описание: Через 20 лет заключения по несправедливому приговору на свободу выходит Иннокентий Бочкин. Он пытается воссоединиться со своей повзрослевшей дочерью Настей, которую воспитывал подполковник милиции Василий Тучков, вынужденный уйти в отставку за отказ участвовать в махинациях. С помощью веселых авантюр Бочкину удается не только поселиться в доме Тучкова, но и закрутить роман с его сестрой Марией.
Теперь Настю и ее двух отцов ждет немало приключений, поскольку волею обстоятельств Бочкин вынужден по заказу "авторитета" украсть картину у чиновника, который, узнав об этом, всеми доступными ему средствами старается отправить его обратно в тюрьму прежде, чем он совершит кражу.- | Все раздачи сериала | Сэмпл-Доп. информация:
● Запись с телеканала "Интер"
● Здесь выложен DVB - т.е. необрезанный и не кодированный исходник (в DVB черные полосы не удаляются и размер файла не ужимается).
● Запись 1-4, 11 серий - Suprug (BF).-

Внимание! Раздача ведётся путём добавления новых серий

При каждом добавлении создаётся новый торрент. Чтобы начать докачку новой серии, пользователям необходимо сделать следующее:
● остановить скачивание;
● удалить старый торрент у себя из клиента (старые серии удалять не надо);
● скачать новый торрент и запустить его у себя в клиенте вместо старого, при этом указать клиенту путь в старую папку, куда и должно происходить скачивание новых серий;
● ваш клиент при запуске должен произвести хеширование (проверку) старой папки (если не производит сам - помогите ему сделать это) и будет докачивать только те серии, которых у вас ещё нет. Старые серии при этом не удаляются, а продолжают раздаваться!
● Eсли вы уже удалили старые серии, то предотвратить их повторную закачку можно, отжав галочку в соответсвующих местах при запуске нового торрента.
По возможности, желательно не удалять старые серии как можно дольше, чтобы релизер смог сконцентрироваться на раздаче новой серии, не отвлекаясь на старые.
Как закачать отдельный файл из торрента или докачать ранее пропущенные файлы торрента!

Как правильно закачивать, чтобы быстрее начать просмотр релиза

При закачке сериалов рекомендую такую схему:
выставляем приоритет первой серии Высокий, следующих 1-2-х серий - Нормальный, следующих 1-2-х серий - Низкий, приоритет остальных пока ставим - Не загружать (пропущен).
По мере выкачки первых серий меняем приоритеты последующих. В итоге довольно скоро начинаем смотреть первые серии, а остальные пока качаются.

---
И второй способ, более радикальный:
Как заставить utorrent скачивать части последовательно (для online просмотра)
Сам этим давно пользуюсь - работает хорошо: обычно фильмы, которым скачиваться час-полтора, начинаю смотреть уже через 20-30 минут!
Нужно только 1 раз аккуратно проделать то, что там написано (занимает 10 минут).
А работает это обычно так:
-Качество: DVB
Формат: MPEG
Видео кодек: MPEG2
Аудио кодек: MPEG1 Layer 2
Видео: MPEG2 Video 704x576 (4:3), 25.00fps, 2 583 Kbps, 0.255 bit/pixel
Аудио: MPEG Audio, 48000Hz, stereo, 192 Кбит/сек

MI

Код:General
Complete name : E:\_NEW\Papashi.(2011.DVB)\10.Papashi.(DVB.AleMak).mpg
Format : MPEG-PS
File size : 1 006 MiB
Duration : 49mn 41s
Overall bit rate mode : Variable
Overall bit rate : 2 831 Kbps
Writing library : (c) 1998-2008 Womble Multimedia, Inc. / MPEG Video Wizard (12/2008) / Mar 31 2009
Video
ID : 224 (0xE0)
Format : MPEG Video
Format version : Version 2
Format profile : Main@Main
Format settings, BVOP : Yes
Format settings, Matrix : Custom
Format settings, GOP : M=3, N=29
Duration : 49mn 41s
Bit rate mode : Variable
Bit rate : 2 583 Kbps
Maximum bit rate : 15.0 Mbps
Width : 704 pixels
Height : 576 pixels
Display aspect ratio : 4:3
Frame rate : 25.000 fps
Standard : PAL
Color space : YUV
Chroma subsampling : 4:2:0
Bit depth : 8 bits
Scan type : Interlaced
Scan order : Top Field First
Compression mode : Lossy
Bits/(Pixel*Frame) : 0.255
Stream size : 918 MiB (91%)
Writing library : (c) 1998-2008 Womble Multimedia, Inc. / MPEG Video Wizard (12/2008) / Mar 31 2009
Audio
ID : 192 (0xC0)
Format : MPEG Audio
Format version : Version 1
Format profile : Layer 2
Duration : 49mn 41s
Bit rate mode : Constant
Bit rate : 192 Kbps
Channel(s) : 2 channels
Sampling rate : 48.0 KHz
Compression mode : Lossy
Stream size : 68.2 MiB (7%)

Скриншоты

[cybertorrent.ru].t493.torrent 
Торрент: Зарегистрирован [ 2019-03-18 13:08 ] · 1E6AF3214590F9C6AD9172F903EA8F795A01582A

Скачать .torrent

Скачать

75 KB

Статус: проверено
Скачан: 0 раз
Размер: 14,66 GB
terms.php
[Профиль] [ЛС]
Показать сообщения:    
Ответить на тему

Текущее время: 16-Сен 04:49

Часовой пояс: UTC ± 0



Вы не можете начинать темы
Вы не можете отвечать на сообщения
Вы не можете редактировать свои сообщения
Вы не можете удалять свои сообщения
Вы не можете голосовать в опросах
Вы не можете прикреплять файлы к сообщениям
Вы можете скачивать файлы

Партнеры

Выражаем благодарность всем людям, внесшим вклад в наш сайт в далёком прошлом. Мы помним Вас, гордимся Вами и ждём Вас обратно!

Интересное в сети