Воришки из соседнего дома / Ребята из дома напротив / De bende van hiernaast / The Gang Next Door (Карст ван Дер Мюлен / Karst van der Meulen) [1980, Нидерланды, комедия, семейный, музыкальный, DVDRip] DVO + Sub Rus, Eng + Original Dut

Ответить на тему
Статистика раздачи
Размер:  1,47 GB   |    Зарегистрирован:  5 месяцев 28 дней   |    Скачан:  0 раз

Полного источника не было: Никогда

   
 
Автор Сообщение

serzh ®

Пол: Не указан

Стаж: 6 месяцев 3 дня

Сообщений: 383

Создавать темы 18-Мар-2019 13:06

[Цитировать]

Воришки из соседнего дома / Ребята из дома напротив / De bende van hiernaast / The Gang Next Door
Страна: Нидерланды
Жанр: комедия, семейный, музыкальный
Год выпуска: 1980
Продолжительность: 01:46:08
Перевод: Любительский (двухголосый закадровый) Родион Камонов и Галина Васюкова
Субтитры: русские полные и форсированные на песни (Михаил Васильев), английские (Subransu)
Оригинальная аудиодорожка: нидерландский
Режиссер: Карст ван Дер Мюлен / Karst van der Meulen
В ролях: Барт Габриэлсе, Норберт ван дер Заан, Харро Копенс, Рубен Деккер, Патрик ван Дорн, Мариеке Якобс, Роберт Роок, Стефан Штрус, Карстен де Вилдер, Ингрид Мулдер, Лизбет Ховиус, Ремке Кайзер

Описание: Никому ничего не сказав, шестеро юных друзей, живущих в одном многоквартирном доме, решают принять участие в музыкальном конкурсе. Они тайком берут у родителей всё, что им нужно для репетиций и будущего выступления. Когда те замечают, что из дома пропадают музыкальные инструменты, лампочки и прочие вещи, то начинают подозревать обитателей трейлер-парка, раскинувшегося поблизости. Назревает масштабный конфликт, в который окажутся втянуты все герои этой истории.
Доп. информация: Совместный проект порталов BlizzardKid и The Next Thing. Изготовление тайминга субтитров - Minhers76, редактирование русского текста, организация перевода и озвучания - sergeyk888, перевод с нидерландского и изготовление английских субтитров - Subransu, редактирование английских субтитров - Brunello, предоставление DVD5 - kasper7007, перевод - Михаил Васильев, сведение звука - Нордер. Организация проекта - serega при поддержке администраторов порталов - rezapp и Minhers76.
Кинопоиск - IMDb
Sample
Качество видео: DVDRip
Формат видео: AVI
Видео: 704x400 (1.76:1), 25 fps, XviD build 73 ~1577 kbps avg, 0.22 bit/pixel
Аудио #1: Russian (AC3, 2 ch, 192 kbps, 16 bits, 48.0 KHz) - DVO
Аудио #2: Dutch (AC3, 2 ch, 192 kbps, 16 bits, 48.0 KHz) - оригинал
Формат субтитров: softsub (SRT)

MediaInfo

General
Complete name : D:\De bende van hiernaast 1980 DVDRip\De bende van hiernaast 1980 DVDRip.avi
Format : AVI
Format/Info : Audio Video Interleave
File size : 1.47 GiB
Duration : 1 h 46 min
Overall bit rate : 1 977 kb/s
Writing application : VirtualDubMod 1.5.10.3 | www.virtualdub-fr.org || (build 2550/release)
Writing library : VirtualDubMod build 2550/release
Video
ID : 0
Format : MPEG-4 Visual
Format profile : Advanced Simple@L5
Format settings : BVOP1
Format settings, BVOP : 1
Format settings, QPel : No
Format settings, GMC : No warppoints
Format settings, Matrix : Default (MPEG)
Codec ID : XVID
Codec ID/Hint : XviD
Duration : 1 h 46 min
Bit rate : 1 579 kb/s
Width : 704 pixels
Height : 400 pixels
Display aspect ratio : 16:9
Frame rate : 25.000 FPS
Color space : YUV
Chroma subsampling : 4:2:0
Bit depth : 8 bits
Scan type : Progressive
Compression mode : Lossy
Bits/(Pixel*Frame) : 0.224
Stream size : 1.17 GiB (80%)
Writing library : XviD 73
Audio #1
ID : 1
Format : AC-3
Format/Info : Audio Coding 3
Codec ID : 2000
Duration : 1 h 46 min
Bit rate mode : Constant
Bit rate : 192 kb/s
Channel(s) : 2 channels
Channel positions : Front: L R
Sampling rate : 48.0 kHz
Frame rate : 31.250 FPS (1536 SPF)
Bit depth : 16 bits
Compression mode : Lossy
Stream size : 146 MiB (10%)
Alignment : Split accross interleaves
Interleave, duration : 40 ms (1.00 video frame)
Interleave, preload duratio : 500 ms
Service kind : Complete Main
Audio #2
ID : 2
Format : AC-3
Format/Info : Audio Coding 3
Codec ID : 2000
Duration : 1 h 46 min
Bit rate mode : Constant
Bit rate : 192 kb/s
Channel(s) : 2 channels
Channel positions : Front: L R
Sampling rate : 48.0 kHz
Frame rate : 31.250 FPS (1536 SPF)
Bit depth : 16 bits
Compression mode : Lossy
Stream size : 146 MiB (10%)
Alignment : Split accross interleaves
Interleave, duration : 40 ms (1.00 video frame)
Interleave, preload duratio : 500 ms
Service kind : Complete Main

Скриншоты



[cybertorrent.ru].t494.torrent 
Торрент: Зарегистрирован [ 2019-03-18 13:08 ] · E024E33A26CDE327E40C1F42DB4607C0660B563E

Скачать .torrent

Скачать

15 KB

Статус: проверено
Скачан: 0 раз
Размер: 1,47 GB
terms.php
[Профиль] [ЛС]
Показать сообщения:    
Ответить на тему

Текущее время: 16-Сен 04:39

Часовой пояс: UTC ± 0



Вы не можете начинать темы
Вы не можете отвечать на сообщения
Вы не можете редактировать свои сообщения
Вы не можете удалять свои сообщения
Вы не можете голосовать в опросах
Вы не можете прикреплять файлы к сообщениям
Вы можете скачивать файлы

Партнеры

Выражаем благодарность всем людям, внесшим вклад в наш сайт в далёком прошлом. Мы помним Вас, гордимся Вами и ждём Вас обратно!

Интересное в сети