Две королевы / Mary Queen of Scots (Джози Рурк / Josie Rourke) [2018, Великобритания, США, драма, биография, история, BDRip] Dub (iTunes)

Ответить на тему
Статистика раздачи
Размер:  1,46 GB   |    Зарегистрирован:  2 месяца 28 дней   |    Скачан:  0 раз

Полного источника не было: Никогда

   
 
Автор Сообщение

солнышко ®

Пол: Не указан

Стаж: 3 месяца 3 дня

Сообщений: 350

Создавать темы 18-Мар-2019 13:06

[Цитировать]

Две королевы / Mary Queen of Scots
Страна: Великобритания, США
Жанр: драма, биография, история
Год выпуска: 2018
Продолжительность: 02:03:55-Перевод: Профессиональный (дублированный) | iTunes
Субтитры: русские ( форс. вшитые), английские (форс. вшитые на франц. речь)
Оригинальная аудиодорожка: нет-Режиссер: Джози Рурк / Josie Rourke-В ролях: Сирша Ронан, Марго Робби, Джек Лауден, Джо Элвин, Дэвид Теннант, Гай Пирс, Анджела Бэйн, Ричард Кэнт, Гай Риз, Том Петти-Описание: 1561 год, после смерти молодого мужа Франциска 18-летняя Мария Стюарт возвращается в Шотландию. Она католичка и по крови имеет право претендовать на престол Англии, чем изрядно нервирует нынешнюю протестантскую королеву Елизавету I. Прислушавшись к советникам, королева отправляет к Марии делегацию, в состав которой входит фаворит Елизаветы граф Роберт Дадли, по мнению большинства, — идеальный кандидат в супруги Марии.- -Качество видео: BDRip | Mary.Queen.of.Scots.2018.1080p.BluRay.REMUX.AVC.DTS-HD.MA.TrueHD.7.1.Atmos-FGT
Формат видео: AVI
Видео: 720x304 (2.37:1), 23.976 fps, XviD build 73 ~1292 kbps avg, 0.25 bit/pixel
Аудио: 48 kHz, AC3 Dolby Digital, 3/2 (L,C,R,l,r) + LFE ch, ~384 kbps-[box]Сэмпл[/box]-

MediaInfo

Код:Формат : AVI
Формат/Информация : Audio Video Interleave
Профиль формата : OpenDML
Размер файла : 1,46 Гбайт
Продолжительность : 2 ч. 3 м.
Общий поток : 1683 Кбит/сек
Программа кодирования : XviD4PSP 6.0 / 54.27.101
Видео
Идентификатор : 0
Формат : MPEG-4 Visual
Профиль формата : Advanced Simple@L5
Настройки формата : BVOP2 / Custom Matrix
Параметр BVOP формата : 2
Параметр QPel формата : Нет
Параметр GMC формата : Без точки перехода
Параметр матрицы формата : Выборочная
Идентификатор кодека : XVID
Идентификатор кодека/Подсказка : XviD
Продолжительность : 2 ч. 3 м.
Битрейт : 1287 Кбит/сек
Ширина : 720 пикселей
Высота : 304 пикселя
Соотношение сторон : 2,35:1
Частота кадров : 23,976 (23976/1000) кадра/сек
Цветовое пространство : YUV
Субдискретизация насыщенности : 4:2:0
Битовая глубина : 8 бит
Тип развёртки : Прогрессивная
Метод сжатия : С потерями
Бит/(Пиксели*Кадры) : 0.245
Размер потока : 1,11 Гбайт (76%)
Библиотека кодирования : XviD 73
Аудио
Идентификатор : 1
Формат : AC-3
Формат/Информация : Audio Coding 3
Коммерческое название : Dolby Digital
Идентификатор кодека : 2000
Продолжительность : 2 ч. 3 м.
Вид битрейта : Постоянный
Битрейт : 384 Кбит/сек
Каналы : 6 каналов
Channel layout : L R C LFE Ls Rs
Частота : 48,0 КГц
Частота кадров : 31,250 кадров/сек (1536 SPF)
Битовая глубина : 16 бит
Метод сжатия : С потерями
Размер потока : 340 Мбайт (23%)
Выравнивание : Соединение по промежуткам
Продолжительность промежутка : 32 мс. (0,77 видеокадр)
ServiceKind/String : Complete Main

Скриншоты


[cybertorrent.ru].t499.torrent 
Торрент: Зарегистрирован [ 2019-03-18 13:08 ] · D48D84057E8D8741FDC68FCCFA2A463EA84F6DDC

Скачать .torrent

Скачать

15 KB

Статус: проверено
Скачан: 0 раз
Размер: 1,46 GB
terms.php
[Профиль] [ЛС]
Показать сообщения:    
Ответить на тему

Текущее время: 16-Июн 08:33

Часовой пояс: UTC ± 0



Вы не можете начинать темы
Вы не можете отвечать на сообщения
Вы не можете редактировать свои сообщения
Вы не можете удалять свои сообщения
Вы не можете голосовать в опросах
Вы не можете прикреплять файлы к сообщениям
Вы можете скачивать файлы