Мертвое озеро / Серии: 1 из 8 (Роман Прыгунов) [2019, мистика, детектив, триллер, WEBRip]

Ответить на тему
Статистика раздачи
Размер:  600 MB   |    Зарегистрирован:  1 месяц 1 день   |    Скачан:  0 раз

Полного источника не было: Никогда

   
 
Автор Сообщение

sss777sss ®

Пол: Не указан

Стаж: 1 месяц 7 дней

Сообщений: 127

Создавать темы 18-Мар-2019 13:06

[Цитировать]

Мертвое озеро
Год выпуска: 2019
Производство: TNT Premier Studios, Mediaslovo по заказу телеканала ТВ3
Жанр: мистика, детектив, триллер
Продолжительность: ~00:52:00 серия
Субтитры: нет
Режиссёр: Роман Прыгунов
В ролях: Евгений Цыганов, Павел Табаков, Александра Ребенок, Александр Робак, Андрей Смоляков, Виктор Хориняк, Павел Ворожцов, Лев Прыгунов, Тимофей Трибунцев, Полина Кутепова, Ксения Кутепова, Надежда Михалкова, Кристина Казинская, Михаил Гаврилов , Екатерина Семёнова, Мария Карпова, Мария Перн, Кирилл Полухин
Описание: Владелец урановых рудников Юрий Кобрин — царь и бог в родном Чангадане. Его бизнес идет в гору и кажется, что ничто не может ему помешать. Но однажды дочь олигарха находят мертвой — кто-то использовал ее для обряда ритуального жертвоприношения. Чтобы найти убийцу, Кобрин выписывает из Москвы лучшего детектива — Максима Покровского. То, с чем сталкивается столичный следователь в маленьком северном городке, бросает вызов всему, на что он опирался в своей работе. Покровскому предстоит разобраться в сложном клубке из криминала, корпоративных интриг и мрачных тайн семейства Кобриных.

Реклама: Нет.
Кинопоиск
Все раздачи сериала
Sample
Качество: WEBRip - 25Kuzmich
Формат: AVI
Видео кодек: XviD
Аудио кодек: AC3
Видео: 720x304 (2.35:1), 25 fps, XviD ~1400 kbps avg, 0.254 bit/pixel
Аудио: 48.0 kHz, AC3 Dolby Digital, 2/0 (L,R) ch, ~ 192 kbps

Внимание! Раздача ведётся путём добавления новых серий

Раздача ведётся путём добавления новых серий, при каждом добавлении создаётся новый торрент. Чтобы начать докачку новой серии, пользователям необходимо сделать следующее:
- Остановить скачивание.
- Удалить старый торрент у себя из клиента (старые серии удалять не надо).
- Скачать новый торрент и запустить его у себя в клиенте вместо старого, при этом указать клиенту путь в старую папку куда и должно происходить скачивание новых серий.
Ваш клиент при этом должен произвести хеширование (проверку) старой папки (если не производит сам - помогите ему сделать это), и будет докачивать только те серии которых у вас ещё нет. Старые серии при этом не удаляются, а продолжают раздаваться!
Если вы уже удалили старые серии, то предотвратить повторную закачку старых серий можно, отжав галочку в соответствующих местах при запуске нового торрента. По возможности, желательно не удалять старые серии как можно дольше, чтобы релизер не столько продолжал раздавать старые серии, а смог сконцентрироваться на новых.

MI

General
Complete name : D:\Mertvoe.ozero.2018.WEB-DLRip.25Kuzmich\Mertvoe.ozero.e01.WEB-DLRip.25Kuzmich.avi
Format : AVI
Format/Info : Audio Video Interleave
File size : 600 MiB
Duration : 52 min 42 s
Overall bit rate : 1 593 kb/s
Writing application : VirtualDubMod 1.5.10.3 | www.virtualdub-fr.org || (build 2550/release)
Writing library : VirtualDubMod build 2550/release
Video
ID : 0
Format : MPEG-4 Visual
Format profile : Advanced Simple@L5
Format settings : BVOP1
Format settings, BVOP : 1
Format settings, QPel : No
Format settings, GMC : No warppoints
Format settings, Matrix : Default (MPEG)
Codec ID : XVID
Codec ID/Hint : XviD
Duration : 52 min 42 s
Bit rate : 1 391 kb/s
Width : 720 pixels
Height : 304 pixels
Display aspect ratio : 2.35:1
Frame rate : 25.000 FPS
Color space : YUV
Chroma subsampling : 4:2:0
Bit depth : 8 bits
Scan type : Progressive
Compression mode : Lossy
Bits/(Pixel*Frame) : 0.254
Stream size : 524 MiB (87%)
Writing library : XviD 73
Audio
ID : 1
Format : AC-3
Format/Info : Audio Coding 3
Codec ID : 2000
Duration : 52 min 42 s
Bit rate mode : Constant
Bit rate : 192 kb/s
Channel(s) : 2 channels
Channel positions : Front: L R
Sampling rate : 48.0 kHz
Frame rate : 31.250 FPS (1536 SPF)
Bit depth : 16 bits
Compression mode : Lossy
Stream size : 72.4 MiB (12%)
Alignment : Split accross interleaves
Interleave, duration : 40 ms (1.00 video frame)
Interleave, preload duratio : 500 ms
Service kind : Complete Main

Скриншоты


Если ваш рейтинг упадет ниже 0,3, вы не сможете скачивать торренты! Подробнее о рейтинге.

[cybertorrent.ru].t505.torrent 
Торрент: Зарегистрирован [ 2019-03-18 13:08 ] · 3A98E534697C5520B7D71A9FB063EE8C2917BF28

Скачать .torrent

Скачать

12 KB

Статус: проверено
Скачан: 0 раз
Размер: 600 MB
terms.php
[Профиль] [ЛС]
Показать сообщения:    
Ответить на тему

Текущее время: 20-Апр 00:59

Часовой пояс: UTC ± 0



Вы не можете начинать темы
Вы не можете отвечать на сообщения
Вы не можете редактировать свои сообщения
Вы не можете удалять свои сообщения
Вы не можете голосовать в опросах
Вы не можете прикреплять файлы к сообщениям
Вы можете скачивать файлы