Берлин, я люблю тебя / Berlin, I Love You (Дианна Агрон / Dianna Agron, Питер Челсом / Peter Chelsom, Фернандо Эймбке / Fernando Eimbcke) [2019, Германия, драма, мелодрама, WEB-DLRip] MVO (HDRezka Studio)

Ответить на тему
Статистика раздачи
Размер:  1,46 GB   |    Зарегистрирован:  1 месяц 1 день   |    Скачан:  0 раз

Полного источника не было: Никогда

   
 
Автор Сообщение

Lew ®

Пол: Не указан

Стаж: 1 месяц 7 дней

Сообщений: 82

Создавать темы 18-Мар-2019 13:06

[Цитировать]

Берлин, я люблю тебя / Berlin, I Love You- Год выхода: 2019
Страна: Германия
Жанр: драма, мелодрама
Продолжительность: 01:59:50
Перевод: Любительский (многоголосый закадровый) HDRezka Studio
Субтитры: нет-Режиссер:
Дианна Агрон / Dianna Agron, Питер Челсом / Peter Chelsom, Фернандо Эймбке / Fernando Eimbcke-В ролях:
Кира Найтли, Хелен Миррен, Люк Уилсон, Джим Стёрджесс, Микки Рурк, Дженна Деван, Диего Луна, Иван Реон, Хайден Панеттьери, Эмили Бичем, Дианна Агрон, Вероника Феррес-О фильме:
Десять романтических историй, которые происходят в столице Германии, Берлине.-Релиз групп | | IMDB | КиноПоиск | Сэмпл |-Качество: WEB-DLRip
Формат: AVI
Видео: 720x384 (1.88:1), 23.976 fps, XviD build 67 ~1547 kbps avg, 0.23 bit/pixel
Аудио: 48 kHz, AC3 Dolby Digital, 2/0 (L,R) ch, ~192 kbps avg-

Скриншоты

-

MediaInfo

Код:Полное имя : D:\Berlin_I_Love_You_2019_WEB-DLRip_MVO_by_Dalemake.avi
Формат : AVI
Формат/Информация : Audio Video Interleave
Размер файла : 1,46 Гбайт
Продолжительность : 1 ч. 59 м.
Общий поток : 1749 Кбит/сек
Программа кодирования : VirtualDubMod 1.5.10.3 | www.virtualdub-fr.org || (build 2550/release)
Библиотека кодирования : VirtualDubMod build 2550/release
Видео
Идентификатор : 0
Формат : MPEG-4 Visual
Профиль формата : Advanced Simple@L5
Параметр BVOP формата : 1
Параметр QPel формата : Нет
Параметр GMC формата : Без точки перехода
Параметр матрицы формата : Выборочная
Идентификатор кодека : XVID
Идентификатор кодека/Подсказка : XviD
Продолжительность : 1 ч. 59 м.
Битрейт : 1548 Кбит/сек
Ширина : 720 пикселей
Высота : 384 пикселя
Соотношение сторон : 1,85:1
Частота кадров : 23,976 кадра/сек
Цветовое пространство : YUV
Субдискретизация насыщенности : 4:2:0
Битовая глубина : 8 бит
Тип развёртки : Прогрессивная
Метод сжатия : С потерями
Бит/(Пиксели*Кадры) : 0.234
Размер потока : 1,30 Гбайт (88%)
Библиотека кодирования : XviD 67
Аудио
Идентификатор : 1
Формат : AC-3
Формат/Информация : Audio Coding 3
Расширение режима : CM (complete main)
Параметр Endianness формата : Big
Идентификатор кодека : 2000
Продолжительность : 1 ч. 59 м.
Вид битрейта : Постоянный
Битрейт : 192 Кбит/сек
Каналы : 2 канала
Расположение каналов : Front: L R
Частота : 48,0 КГц
Метод сжатия : С потерями
Размер потока : 165 Мбайт (11%)
Выравнивание : Разделение по промежуткам
Продолжительность промежутка : 42 мс. (1,00 видеокадр)
Время предзагрузки промежутка : 500 мс.
-При появлении проф. перевода рип будет перезалит!-

Если ваш рейтинг упадет ниже 0,3, вы не сможете скачивать торренты! Подробнее о рейтинге.

[cybertorrent.ru].t507.torrent 
Торрент: Зарегистрирован [ 2019-03-18 13:08 ] · 5001D9B94A048B8C3F718228722B29301841CCA0

Скачать .torrent

Скачать

15 KB

Статус: проверено
Скачан: 0 раз
Размер: 1,46 GB
terms.php
[Профиль] [ЛС]
Показать сообщения:    
Ответить на тему

Текущее время: 20-Апр 00:46

Часовой пояс: UTC ± 0



Вы не можете начинать темы
Вы не можете отвечать на сообщения
Вы не можете редактировать свои сообщения
Вы не можете удалять свои сообщения
Вы не можете голосовать в опросах
Вы не можете прикреплять файлы к сообщениям
Вы можете скачивать файлы