Только не отпускай меня / Серии: 1-4 из 4 (Роман Бровко) [2014, криминал, драма, HDTV 1080i]

Ответить на тему
Статистика раздачи
Размер:  12,78 GB   |    Зарегистрирован:  5 месяцев 30 дней   |    Скачан:  0 раз

Полного источника не было: Никогда

   
 
Автор Сообщение

sss777sss ®

Пол: Не указан

Стаж: 6 месяцев 5 дней

Сообщений: 423

Создавать темы 18-Мар-2019 13:06

[Цитировать]

Только не отпускай меня
Производство: Кинокомпания "STAR MEDIA"
Жанр: криминал, драма
Год выпуска: 2014
Продолжительность: ~ 47:00
Субтитры: Отсутствуют
Режиссёр: Роман Бровко
В ролях: Александра Сизоненко, Анна Адамович, Владислав Мамчур, Константин Самоуков, Оксана Воронина, Пётр Миронов, Светлана Шекера, Анна Абрамёнок, Михаил Аугуст, Юрий Высоцкий, Тарас Готовцев, Виктор Кручина, Игорь Лысюк, Станислав Москвин, Олег Немировский
Описание: Наташа Коноплева работает в больнице медсестрой. Живет с мамой. Перебиваются от зарплаты до зарплаты. Живут скромно, но достойно. Так считает мама Наташи, которая одна воспитала дочку и привила ей лучшие человеческие качества: честность, бескомпромиссность, ответственное отношение к работе. Мама очень старалась, чтобы дочка не пошла в своего непутевого отца – алкоголика, человека опустившегося, не гнушающегося ничем, чтобы добыть деньги на выпивку. Мама Наташи после ссоры с мужем слегла и после сильного стресса перестала ходить. Зав. отделением разрешил Наташе, лучшей медсестре, положить маму к ним в больницу. Наташа сделала попытку получить помощь от отца, но он в очередной раз обманул доверчивую дочку и просто украл у нее зарплату.
Доп. информация:
Автор релиза -
Источник - HDTV 1080i TS - моя запись с канала "Наш Кинороман HD"
Рекламы нет!
Все раздачи сериала




Качество видео: HDTV 1080i
Формат видео: TS
Видео кодек: MPEG-4
Аудио кодек 1: МР2
Аудио кодек 2: AC3
Видео: 1920x1080 (16:9), 25.000 fps, ~8600 kbps, ~ 0.166 bit/pixel
Аудио 1: 48000 Гц, 2 ch, 192 kbps
Аудио 2: 48000 Гц, 6 ch, 448 kbps

MediaInfo

Общее
Идентификатор : 1 (0x1)
Полное имя : D:\Только.не.отпускай.меня.2014.HDTV.1080i-ylnian\Только.не.отпускай.меня.2014.HDTV.1080i-ylnian_1.ts
Формат : MPEG-TS
Размер файла : 3,41 Гбайт
Продолжительность : 49 м. 40 с.
Режим общего битрейта : Переменный
Общий поток : 9817 Кбит/сек
Видео
Идентификатор : 3551 (0xDDF)
Идентификатор меню : 17015 (0x4277)
Формат : AVC
Формат/Информация : Advanced Video Codec
Профиль формата : Main@L4
Настройки формата : CABAC / 3 Ref Frames
Параметр CABAC формата : Да
Параметр RefFrames формата : 3 кадра
Параметр GOP формата : M=4, N=32
Идентификатор кодека : 27
Продолжительность : 49 м. 40 с.
Битрейт : 8686 Кбит/сек
Ширина : 1920 пикселей
Высота : 1080 пикселей
Соотношение сторон : 16:9
Частота кадров : 25,000 кадров/сек
Цветовое пространство : YUV
Субдискретизация насыщенности : 4:2:0
Битовая глубина : 8 бит
Тип развёртки : Чересстрочная
Метод сохранения типа развёртки : Раздельные поля
Порядок развёртки : Верхнее поле первое
Бит/(Пиксели*Кадры) : 0.168
Размер потока : 3,01 Гбайт (88%)
Цветовой диапазон : Limited
Основные цвета : BT.709
Характеристики трансфера : BT.709
Коэффициенты матрицы : BT.709
Аудио #1
Идентификатор : 3552 (0xDE0)
Идентификатор меню : 17015 (0x4277)
Формат : MPEG Audio
Версия формата : Version 1
Профиль формата : Layer 2
Идентификатор кодека : 3
Продолжительность : 49 м. 40 с.
Вид битрейта : Постоянный
Битрейт : 192 Кбит/сек
Каналы : 2 канала
Частота : 48,0 КГц
Частота кадров : 41,667 кадра/сек (1152 SPF)
Метод сжатия : С потерями
Размер потока : 68,2 Мбайт (2%)
Язык : Russian
Аудио #2
Идентификатор : 3553 (0xDE1)
Идентификатор меню : 17015 (0x4277)
Формат : AC-3
Формат/Информация : Audio Coding 3
Коммерческое название : Dolby Digital
Идентификатор кодека : 6
Продолжительность : 49 м. 40 с.
Вид битрейта : Постоянный
Битрейт : 448 Кбит/сек
Каналы : 6 каналов
Channel layout : L R C LFE Ls Rs
Частота : 48,0 КГц
Частота кадров : 31,250 кадров/сек (1536 SPF)
Битовая глубина : 16 бит
Метод сжатия : С потерями
Размер потока : 159 Мбайт (5%)
Язык : Russian
ServiceKind/String : Complete Main
Общее
Идентификатор : 1 (0x1)
Полное имя : D:\Только.не.отпускай.меня.2014.HDTV.1080i-ylnian\Только.не.отпускай.меня.2014.HDTV.1080i-ylnian_2.ts
Формат : MPEG-TS
Размер файла : 3,11 Гбайт
Продолжительность : 47 м. 4 с.
Режим общего битрейта : Переменный
Общий поток : 9461 Кбит/сек
Видео
Идентификатор : 3551 (0xDDF)
Идентификатор меню : 17015 (0x4277)
Формат : AVC
Формат/Информация : Advanced Video Codec
Профиль формата : Main@L4
Настройки формата : CABAC / 3 Ref Frames
Параметр CABAC формата : Да
Параметр RefFrames формата : 3 кадра
Параметр GOP формата : M=4, N=32
Идентификатор кодека : 27
Продолжительность : 47 м. 4 с.
Битрейт : 8347 Кбит/сек
Ширина : 1920 пикселей
Высота : 1080 пикселей
Соотношение сторон : 16:9
Частота кадров : 25,000 кадров/сек
Цветовое пространство : YUV
Субдискретизация насыщенности : 4:2:0
Битовая глубина : 8 бит
Тип развёртки : Чересстрочная
Метод сохранения типа развёртки : Раздельные поля
Порядок развёртки : Верхнее поле первое
Бит/(Пиксели*Кадры) : 0.161
Размер потока : 2,74 Гбайт (88%)
Цветовой диапазон : Limited
Основные цвета : BT.709
Характеристики трансфера : BT.709
Коэффициенты матрицы : BT.709
Аудио #1
Идентификатор : 3552 (0xDE0)
Идентификатор меню : 17015 (0x4277)
Формат : MPEG Audio
Версия формата : Version 1
Профиль формата : Layer 2
Идентификатор кодека : 3
Продолжительность : 47 м. 4 с.
Вид битрейта : Постоянный
Битрейт : 192 Кбит/сек
Каналы : 2 канала
Частота : 48,0 КГц
Частота кадров : 41,667 кадра/сек (1152 SPF)
Метод сжатия : С потерями
Задержка видео : -120 мс.
Размер потока : 64,6 Мбайт (2%)
Язык : Russian
Аудио #2
Идентификатор : 3553 (0xDE1)
Идентификатор меню : 17015 (0x4277)
Формат : AC-3
Формат/Информация : Audio Coding 3
Коммерческое название : Dolby Digital
Идентификатор кодека : 6
Продолжительность : 47 м. 4 с.
Вид битрейта : Постоянный
Битрейт : 448 Кбит/сек
Каналы : 6 каналов
Channel layout : L R C LFE Ls Rs
Частота : 48,0 КГц
Частота кадров : 31,250 кадров/сек (1536 SPF)
Битовая глубина : 16 бит
Метод сжатия : С потерями
Задержка видео : -120 мс.
Размер потока : 151 Мбайт (5%)
Язык : Russian
ServiceKind/String : Complete Main
Общее
Идентификатор : 1 (0x1)
Полное имя : D:\Только.не.отпускай.меня.2014.HDTV.1080i-ylnian\Только.не.отпускай.меня.2014.HDTV.1080i-ylnian_3.ts
Формат : MPEG-TS
Размер файла : 3,21 Гбайт
Продолжительность : 45 м. 46 с.
Режим общего битрейта : Переменный
Общий поток : 10,0 Мбит/сек
Видео
Идентификатор : 3551 (0xDDF)
Идентификатор меню : 17015 (0x4277)
Формат : AVC
Формат/Информация : Advanced Video Codec
Профиль формата : Main@L4
Настройки формата : CABAC / 3 Ref Frames
Параметр CABAC формата : Да
Параметр RefFrames формата : 3 кадра
Параметр GOP формата : M=4, N=32
Идентификатор кодека : 27
Продолжительность : 45 м. 46 с.
Битрейт : 8897 Кбит/сек
Ширина : 1920 пикселей
Высота : 1080 пикселей
Соотношение сторон : 16:9
Частота кадров : 25,000 кадров/сек
Цветовое пространство : YUV
Субдискретизация насыщенности : 4:2:0
Битовая глубина : 8 бит
Тип развёртки : Чересстрочная
Метод сохранения типа развёртки : Раздельные поля
Порядок развёртки : Верхнее поле первое
Бит/(Пиксели*Кадры) : 0.172
Размер потока : 2,84 Гбайт (89%)
Цветовой диапазон : Limited
Основные цвета : BT.709
Характеристики трансфера : BT.709
Коэффициенты матрицы : BT.709
Аудио #1
Идентификатор : 3552 (0xDE0)
Идентификатор меню : 17015 (0x4277)
Формат : MPEG Audio
Версия формата : Version 1
Профиль формата : Layer 2
Идентификатор кодека : 3
Продолжительность : 45 м. 46 с.
Вид битрейта : Постоянный
Битрейт : 192 Кбит/сек
Каналы : 2 канала
Частота : 48,0 КГц
Частота кадров : 41,667 кадра/сек (1152 SPF)
Метод сжатия : С потерями
Задержка видео : -120 мс.
Размер потока : 62,9 Мбайт (2%)
Язык : Russian
Аудио #2
Идентификатор : 3553 (0xDE1)
Идентификатор меню : 17015 (0x4277)
Формат : AC-3
Формат/Информация : Audio Coding 3
Коммерческое название : Dolby Digital
Идентификатор кодека : 6
Продолжительность : 45 м. 46 с.
Вид битрейта : Постоянный
Битрейт : 448 Кбит/сек
Каналы : 6 каналов
Channel layout : L R C LFE Ls Rs
Частота : 48,0 КГц
Частота кадров : 31,250 кадров/сек (1536 SPF)
Битовая глубина : 16 бит
Метод сжатия : С потерями
Задержка видео : -120 мс.
Размер потока : 147 Мбайт (4%)
Язык : Russian
ServiceKind/String : Complete Main
Общее
Идентификатор : 1 (0x1)
Полное имя : D:\Только.не.отпускай.меня.2014.HDTV.1080i-ylnian\Только.не.отпускай.меня.2014.HDTV.1080i-ylnian_4.ts
Формат : MPEG-TS
Размер файла : 3,05 Гбайт
Продолжительность : 45 м. 22 с.
Режим общего битрейта : Переменный
Общий поток : 9626 Кбит/сек
Видео
Идентификатор : 3551 (0xDDF)
Идентификатор меню : 17015 (0x4277)
Формат : AVC
Формат/Информация : Advanced Video Codec
Профиль формата : Main@L4
Настройки формата : CABAC / 3 Ref Frames
Параметр CABAC формата : Да
Параметр RefFrames формата : 3 кадра
Параметр GOP формата : M=4, N=32
Идентификатор кодека : 27
Продолжительность : 45 м. 22 с.
Битрейт : 8503 Кбит/сек
Ширина : 1920 пикселей
Высота : 1080 пикселей
Соотношение сторон : 16:9
Частота кадров : 25,000 кадров/сек
Цветовое пространство : YUV
Субдискретизация насыщенности : 4:2:0
Битовая глубина : 8 бит
Тип развёртки : Чересстрочная
Метод сохранения типа развёртки : Раздельные поля
Порядок развёртки : Верхнее поле первое
Бит/(Пиксели*Кадры) : 0.164
Размер потока : 2,69 Гбайт (88%)
Цветовой диапазон : Limited
Основные цвета : BT.709
Характеристики трансфера : BT.709
Коэффициенты матрицы : BT.709
Аудио #1
Идентификатор : 3552 (0xDE0)
Идентификатор меню : 17015 (0x4277)
Формат : MPEG Audio
Версия формата : Version 1
Профиль формата : Layer 2
Идентификатор кодека : 3
Продолжительность : 45 м. 22 с.
Вид битрейта : Постоянный
Битрейт : 192 Кбит/сек
Каналы : 2 канала
Частота : 48,0 КГц
Частота кадров : 41,667 кадра/сек (1152 SPF)
Метод сжатия : С потерями
Задержка видео : -120 мс.
Размер потока : 62,3 Мбайт (2%)
Язык : Russian
Аудио #2
Идентификатор : 3553 (0xDE1)
Идентификатор меню : 17015 (0x4277)
Формат : AC-3
Формат/Информация : Audio Coding 3
Коммерческое название : Dolby Digital
Идентификатор кодека : 6
Продолжительность : 45 м. 22 с.
Вид битрейта : Постоянный
Битрейт : 448 Кбит/сек
Каналы : 6 каналов
Channel layout : L R C LFE Ls Rs
Частота : 48,0 КГц
Частота кадров : 31,250 кадров/сек (1536 SPF)
Битовая глубина : 16 бит
Метод сжатия : С потерями
Задержка видео : -120 мс.
Размер потока : 145 Мбайт (5%)
Язык : Russian
ServiceKind/String : Complete Main
[cybertorrent.ru].t515.torrent 
Торрент: Зарегистрирован [ 2019-03-18 13:08 ] · 75B520C32EF0862F0CF395421A4AEB46512B515F

Скачать .torrent

Скачать

65 KB

Статус: проверено
Скачан: 0 раз
Размер: 12,78 GB
terms.php
[Профиль] [ЛС]
Показать сообщения:    
Ответить на тему

Текущее время: 18-Сен 09:54

Часовой пояс: UTC ± 0



Вы не можете начинать темы
Вы не можете отвечать на сообщения
Вы не можете редактировать свои сообщения
Вы не можете удалять свои сообщения
Вы не можете голосовать в опросах
Вы не можете прикреплять файлы к сообщениям
Вы можете скачивать файлы

Партнеры

Выражаем благодарность всем людям, внесшим вклад в наш сайт в далёком прошлом. Мы помним Вас, гордимся Вами и ждём Вас обратно!

Интересное в сети