Семь ужинов (Кирилл Плетнёв) [2019, комедия, WEB-DLRip]

Ответить на тему
Статистика раздачи
Размер:  743 MB   |    Зарегистрирован:  5 месяцев   |    Скачан:  0 раз

Полного источника не было: Никогда

   
 
Автор Сообщение

Rodin ®

Пол: Не указан

Стаж: 5 месяцев 6 дней

Сообщений: 226

Создавать темы 18-Мар-2019 13:06

[Цитировать]

Семь ужинов
Год выхода: 2019
Страна: Россия
Жанр: комедия
Продолжительность: 01:29:44
Субтитры: нет-Режиссер: Кирилл Плетнёв-В ролях: Роман Курцын, Полина Максимова, Елена Яковлева, Владимир Ильин, Петар Зекавица, Анастасия Уколова, Вера Гурьева, Александр Лыков-О фильме: После пяти лет совместной жизни отношения супругов разваливаются: детей нет, любовь остыла, общих интересов практически не осталось. Когда жена просит развод, главный герой вдруг осознает, что не готов отпустить близкого человека и уговаривает жену протестировать будто бы разработанную им научную методику восстановления отношений.
Называется она «Семь ужинов». И если после участия в этом эксперименте девушка не изменит решение, он даст ей развод. Все просто — они должны будут поужинать семь раз. Но выясняется, что каждый раз будут новые вводные — ужин в темноте, ужин без одежды, ужин в присутствии постороннего человека… Жена, уверенная в том, что это лишь наивный повод оттянуть расставание, снисходительно соглашается.- -Качество: WEB-DLRip
Формат: AVI
Видео : 688x288 (2.39:1), 24.000 fps, XviD build 73 ~1019 kbps avg, 0.21 bit/pixel
Аудио : 48 kHz, MPEG Layer 3, 2 ch, ~128.00 kbps avg-[box]Сэмпл[/box]-

MediaInfo

Код:Формат : AVI
Формат/Информация : Audio Video Interleave
Размер файла : 743 Мбайт
Продолжительность : 1 ч. 29 м.
Общий поток : 1157 Кбит/сек
Программа кодирования : VirtualDubMod 1.5.10.3 | www.virtualdub-fr.org || (build 2550/release)
Библиотека кодирования : VirtualDubMod build 2550/release
Видео
Идентификатор : 0
Формат : MPEG-4 Visual
Профиль формата : Advanced Simple@L5
Настройки формата : BVOP1 / Custom Matrix
Параметр BVOP формата : 1
Параметр QPel формата : Нет
Параметр GMC формата : Без точки перехода
Параметр матрицы формата : Выборочная
Идентификатор кодека : XVID
Идентификатор кодека/Подсказка : XviD
Продолжительность : 1 ч. 29 м.
Битрейт : 1019 Кбит/сек
Ширина : 688 пикселей
Высота : 288 пикселей
Соотношение сторон : 2,40:1
Частота кадров : 24,000 кадра/сек
Цветовое пространство : YUV
Субдискретизация насыщенности : 4:2:0
Битовая глубина : 8 бит
Тип развёртки : Прогрессивная
Метод сжатия : С потерями
Бит/(Пиксели*Кадры) : 0.214
Размер потока : 654 Мбайт (88%)
Библиотека кодирования : XviD 73
Аудио
Идентификатор : 1
Формат : MPEG Audio
Версия формата : Version 1
Профиль формата : Layer 3
Идентификатор кодека : 55
Идентификатор кодека/Подсказка : MP3
Продолжительность : 1 ч. 29 м.
Вид битрейта : Постоянный
Битрейт : 128 Кбит/сек
Каналы : 2 канала
Частота : 48,0 КГц
Частота кадров : 41,667 кадра/сек (1152 SPF)
Метод сжатия : С потерями
Размер потока : 82,2 Мбайт (11%)
Выравнивание : Соединение по промежуткам
Продолжительность промежутка : 42 мс. (1,00 видеокадр)
Время предзагрузки промежутка : 504 мс.
Библиотека кодирования : LAME3.99r
Настройки программы : -m s -V 4 -q 2 -lowpass 17 -b 128

Скриншоты


[cybertorrent.ru].t516.torrent 
Торрент: Зарегистрирован [ 2019-03-18 13:08 ] · 89B21752C16833586433C5628811012AAD6537D9

Скачать .torrent

Скачать

15 KB

Статус: проверено
Скачан: 0 раз
Размер: 743 MB
terms.php
[Профиль] [ЛС]
Показать сообщения:    
Ответить на тему

Текущее время: 19-Авг 00:14

Часовой пояс: UTC ± 0



Вы не можете начинать темы
Вы не можете отвечать на сообщения
Вы не можете редактировать свои сообщения
Вы не можете удалять свои сообщения
Вы не можете голосовать в опросах
Вы не можете прикреплять файлы к сообщениям
Вы можете скачивать файлы