Королевский корги / The Queen's Corgi (Винсент Кестелут / Vincent Kesteloot, Бен Стассен / Ben Stassen) [2019, Бельгия, мультфильм, приключения, семейный, детский, BDRip] Dub (iTunes)

Ответить на тему
Статистика раздачи
Размер:  746 MB   |    Зарегистрирован:  6 дней   |    Скачан:  0 раз

Полного источника не было: Никогда

   
 
Автор Сообщение

karlll ®

Пол: Не указан

Стаж: 5 месяцев 6 дней

Сообщений: 163

Создавать темы 12-Авг-2019 16:23

[Цитировать]

Королевский корги / The Queen's Corgi
Страна: Бельгия
Жанр: мультфильм, приключения, семейный, детский
Год выпуска: 2019
Продолжительность: 01:25:17-Перевод: Профессиональный (дублированный) | iTunes
Субтитры: нет
Оригинальная аудиодорожка: нет-Режиссер: Винсент Кестелут / Vincent Kesteloot, Бен Стассен / Ben Stassen-В ролях: Расти Шэклфорд, Джо Уайатт, Джейн Алан, Дино Андраде, Джои Камен, Николь Шерман, Кирк Торнтон, Мэдисон Браун, Камила Родс-Описание: Любимая порода собак у очень богатых и влиятельных людей — это корги. Маленькие собачки полностью погружены в жизнь своих больших хозяев. Спасаясь от политических интриг, любимец Британской Королевы вынужден покинуть Букингемский дворец. Теперь ему предстоит не только познакомиться с тайной жизнью улиц Лондона, но и доказать, что он настоящий Королевский Корги…- -Качество видео: BDRip
Формат видео: AVI
Видео: 688x384 (1.79:1), 24.000 fps, XviD build 73 ~1085 kbps avg, 0.17 bit/pixel
Аудио: 48 kHz, MPEG Layer 3, 2 ch, ~128.00 kbps avg-[box]Сэмпл[/box]-

MediaInfo

Код:Формат : AVI
Формат/Информация : Audio Video Interleave
Размер файла : 746 Мбайт
Продолжительность : 1 ч. 25 м.
Общий поток : 1223 Кбит/сек
Название фильма : Королевский корги_2019_BDRip
Программа кодирования : VirtualDubMod 1.5.10.3 | www.virtualdub-fr.org || (build 2550/release)
Авторское право : порошков
Видео
Идентификатор : 0
Формат : MPEG-4 Visual
Профиль формата : Advanced Simple@L5
Настройки формата : BVOP1 / Custom Matrix
Параметр BVOP формата : 1
Параметр QPel формата : Нет
Параметр GMC формата : Без точки перехода
Параметр матрицы формата : Выборочная
Идентификатор кодека : XVID
Идентификатор кодека/Подсказка : XviD
Продолжительность : 1 ч. 25 м.
Битрейт : 1086 Кбит/сек
Ширина : 688 пикселей
Высота : 384 пикселя
Соотношение сторон : 16:9
Частота кадров : 24,000 кадра/сек
Цветовое пространство : YUV
Субдискретизация насыщенности : 4:2:0
Битовая глубина : 8 бит
Тип развёртки : Прогрессивная
Метод сжатия : С потерями
Бит/(Пиксели*Кадры) : 0.171
Размер потока : 663 Мбайт (89%)
Библиотека кодирования : XviD 73
Аудио
Идентификатор : 1
Формат : MPEG Audio
Версия формата : Version 1
Профиль формата : Layer 3
Идентификатор кодека : 55
Идентификатор кодека/Подсказка : MP3
Продолжительность : 1 ч. 25 м.
Вид битрейта : Постоянный
Битрейт : 128 Кбит/сек
Каналы : 2 канала
Частота : 48,0 КГц
Частота кадров : 41,667 кадра/сек (1152 SPF)
Метод сжатия : С потерями
Размер потока : 77,9 Мбайт (10%)
Выравнивание : Соединение по промежуткам
Продолжительность промежутка : 42 мс. (1,00 видеокадр)
Время предзагрузки промежутка : 504 мс.
Библиотека кодирования : LAME3.99r
Настройки программы : -m s -V 4 -q 2 -lowpass 17 -b 128

Скриншоты


[cybertorrent.ru].t5214.torrent 
Торрент: Зарегистрирован [ 2019-08-12 16:23 ] · 53AA67C15A4A087E17274615EC6ECA18789F6758

Скачать .torrent

Скачать

15 KB

Статус: проверено
Скачан: 0 раз
Размер: 746 MB
terms.php
[Профиль] [ЛС]
Показать сообщения:    
Ответить на тему

Текущее время: 19-Авг 06:24

Часовой пояс: UTC ± 0



Вы не можете начинать темы
Вы не можете отвечать на сообщения
Вы не можете редактировать свои сообщения
Вы не можете удалять свои сообщения
Вы не можете голосовать в опросах
Вы не можете прикреплять файлы к сообщениям
Вы можете скачивать файлы