Дорогая незнакомка / Chere inconnue (Моше Мизрахи / Moshe Mizrahi) [1980, Франция, драма, мелодрама, комедия, экранизация, HDTVRip-AVC] VO + Original (Fra) + Sub (Rus, Eng, Fra, Deu)

Ответить на тему
Статистика раздачи
Размер:  1,47 GB   |    Зарегистрирован:  6 дней   |    Скачан:  0 раз

Полного источника не было: Никогда

   
 
Автор Сообщение

serzh ®

Пол: Не указан

Стаж: 5 месяцев 6 дней

Сообщений: 348

Создавать темы 12-Авг-2019 16:23

[Цитировать]

Дорогая незнакомка
Chère inconnue- Страна: Франция
Жанр: драма, мелодрама, комедия, экранизация
Год выпуска: 1980
Продолжительность: 01:37:45Перевод: Одноголосый закадровый (ralf124c41+ по переводу компании Hiventy)
Субтитры: русские, английские, французские, немецкие, нидерландские, румынские, испанские
Оригинальная аудиодорожка: французский
Режиссер: Моше Мизрахи / Moshé Mizrahi
В ролях: Симона Синьоре / Simone Signoret (Louise Martin), Жан Рошфор / Jean Rochefort (Gilles Martin), Дельфин Сейриг / Delphine Seyrig (Yvette), Женевьева Фонтанель / Genevieve Fontanel (Béatrice), Доминик Лабурье / Dominique Labourier (Catherine), Мадлен Озерэ / Madeleine Ozeray (Mme Thomas)
Описание: по роману валлийской англоязычной писательницы Бернис Рубенс / Bernice Rubens "Я направил письмо моей любимой / I Sent a Letter to My Love" (1975). Композитор Филипп Сард / Philippe Sarde, оператор Гислен Клоке / Ghislain Cloquet.
Жиль, мужчина средних лет, уже много лет прикован к инвалидной коляске. Однако, страдает он не столько от несвободы передвижения, сколько от одиночества. Ему нужна женщина. Всю жизнь за ним ухаживает сестра, которая тоже не смогла найти личное счастье. Однажды она решает дать объявление в раздел знакомств местной газеты. Но и предположить не может - от кого получит ответ...
Доп. информация: TV5MONDE HD
Награды: номинация на "Сезар" 1981 в категории "Лучшая актриса второго плана" (Delphine Seyrig); номинация на "Золотой Хьюго" за лучший художественный фильм Chicago International Film Festival 1980.
Качество видео: HDTVRip-AVC
Формат видео: MKV
Видео: AVC (H.264), 1056х640 (5:3), 25 fps, ~1764 kbps avg, 0.104 bit/pixel
Аудио 1: AC3, 2 ch, 48 kHz, 192 kbps - русский
Аудио 2: AC3, 2 ch, 48 kHz, 192 kbps - французский
Формат субтитров: softsub (SRT)

MediaInfo

General
Unique ID : 93528672948722697413788702026997332437 (0x465CF799B4043AE14220D3F3F8C279D5)
Complete name : [apreder]Chere_inconnue(1980)HDTVRip.mkv
Format : Matroska
Format version : Version 2
File size : 1.47 GiB
Duration : 1 h 37 min
Overall bit rate : 2 151 kb/s
Movie name : Chиre inconnue
Released date : 1980-04-09
Encoded date : UTC 2019-08-11 14:57:16
Writing application : mkvmerge v36.0.0 ('Is That Jazz?') 64-bit
Writing library : libebml v1.3.9 + libmatroska v1.5.2
Cover : Yes
Attachments : cover.jpg / small_cover.jpg
ACTOR : Simone Signoret, Jean Rochefort, Delphine Seyrig
DIRECTOR : Moshe Mizrahi
GENRE : Drama, Romance
IMDB : tt0082182
KEYWORDS : rutracker.org
LAW_RATING : 16+
Video
ID : 1
Format : AVC
Format/Info : Advanced Video Codec
Format profile : High@L4.1
Format settings : CABAC / 9 Ref Frames
Format settings, CABAC : Yes
Format settings, Reference frames : 9 frames
Codec ID : V_MPEG4/ISO/AVC
Duration : 1 h 37 min
Bit rate : 1 764 kb/s
Width : 1 056 pixels
Height : 640 pixels
Display aspect ratio : 5:3
Frame rate mode : Constant
Frame rate : 25.000 FPS
Color space : YUV
Chroma subsampling : 4:2:0
Bit depth : 8 bits
Scan type : Progressive
Bits/(Pixel*Frame) : 0.104
Stream size : 1.18 GiB (80%)
Writing library : x264 core 157 r2969 d4099dd
Encoding settings : cabac=1 / ref=9 / deblock=1:-1:-1 / analyse=0x3:0x133 / me=umh / subme=10 / psy=1 / psy_rd=1.00:0.15 / mixed_ref=1 / me_range=24 / chroma_me=1 / trellis=2 / 8x8dct=1 / cqm=0 / deadzone=21,11 / fast_pskip=1 / chroma_qp_offset=-3 / threads=18 / lookahead_threads=3 / sliced_threads=0 / nr=0 / decimate=1 / interlaced=0 / bluray_compat=0 / constrained_intra=0 / bframes=8 / b_pyramid=2 / b_adapt=2 / b_bias=0 / direct=3 / weightb=1 / open_gop=0 / weightp=2 / keyint=250 / keyint_min=25 / scenecut=40 / intra_refresh=0 / rc_lookahead=60 / rc=2pass / mbtree=1 / bitrate=1764 / ratetol=1.0 / qcomp=0.60 / qpmin=0 / qpmax=69 / qpstep=4 / cplxblur=20.0 / qblur=0.5 / vbv_maxrate=62500 / vbv_bufsize=78125 / nal_hrd=none / filler=0 / ip_ratio=1.40 / aq=1:1.00
Default : Yes
Forced : No
Audio #1
ID : 2
Format : AC-3
Format/Info : Audio Coding 3
Commercial name : Dolby Digital
Codec ID : A_AC3
Duration : 1 h 37 min
Bit rate mode : Constant
Bit rate : 192 kb/s
Channel(s) : 2 channels
Channel layout : L R
Sampling rate : 48.0 kHz
Frame rate : 31.250 FPS (1536 SPF)
Bit depth : 16 bits
Compression mode : Lossy
Stream size : 134 MiB (9%)
Language : Russian
Service kind : Complete Main
Default : Yes
Forced : No
Audio #2
ID : 3
Format : AC-3
Format/Info : Audio Coding 3
Commercial name : Dolby Digital
Codec ID : A_AC3
Duration : 1 h 37 min
Bit rate mode : Constant
Bit rate : 192 kb/s
Channel(s) : 2 channels
Channel layout : L R
Sampling rate : 48.0 kHz
Frame rate : 31.250 FPS (1536 SPF)
Bit depth : 16 bits
Compression mode : Lossy
Stream size : 134 MiB (9%)
Language : French
Service kind : Complete Main
Default : No
Forced : No
Text #1
ID : 4
Format : UTF-8
Codec ID : S_TEXT/UTF8
Codec ID/Info : UTF-8 Plain Text
Language : Russian
Default : No
Forced : No
Text #2
ID : 5
Format : UTF-8
Codec ID : S_TEXT/UTF8
Codec ID/Info : UTF-8 Plain Text
Language : English
Default : No
Forced : No
Text #3
ID : 6
Format : UTF-8
Codec ID : S_TEXT/UTF8
Codec ID/Info : UTF-8 Plain Text
Language : French
Default : No
Forced : No
Text #4
ID : 7
Format : UTF-8
Codec ID : S_TEXT/UTF8
Codec ID/Info : UTF-8 Plain Text
Language : German
Default : No
Forced : No
Text #5
ID : 8
Format : UTF-8
Codec ID : S_TEXT/UTF8
Codec ID/Info : UTF-8 Plain Text
Language : Dutch
Default : No
Forced : No
Text #6
ID : 9
Format : UTF-8
Codec ID : S_TEXT/UTF8
Codec ID/Info : UTF-8 Plain Text
Language : rom
Default : No
Forced : No
Text #7
ID : 10
Format : UTF-8
Codec ID : S_TEXT/UTF8
Codec ID/Info : UTF-8 Plain Text
Language : Spanish
Default : No
Forced : No

Скриншот c названием фильма

Скриншоты


Резервные скриншоты


- [4'657]
[cybertorrent.ru].t5218.torrent 
Торрент: Зарегистрирован [ 2019-08-12 16:23 ] · C07E882A8EEC4DBCB42AC5AD57BE19F08531172B

Скачать .torrent

Скачать

15 KB

Статус: проверено
Скачан: 0 раз
Размер: 1,47 GB
terms.php
[Профиль] [ЛС]
Показать сообщения:    
Ответить на тему

Текущее время: 19-Авг 06:30

Часовой пояс: UTC ± 0



Вы не можете начинать темы
Вы не можете отвечать на сообщения
Вы не можете редактировать свои сообщения
Вы не можете удалять свои сообщения
Вы не можете голосовать в опросах
Вы не можете прикреплять файлы к сообщениям
Вы можете скачивать файлы