Оперативник / The Operative (Юваль Адлер / Yuval Adler) [2019, США, Израиль, Франция, Германия, Триллер, WEB-DLRip] MVO (HDRezka Studio) + Sub (Rus, Eng)

Ответить на тему
Статистика раздачи
Размер:  1,46 GB   |    Зарегистрирован:  6 дней   |    Скачан:  0 раз

Полного источника не было: Никогда

   
 
Автор Сообщение

Lew ®

Пол: Не указан

Стаж: 5 месяцев 6 дней

Сообщений: 378

Создавать темы 12-Авг-2019 16:23

[Цитировать]

Оперативник / The Operative- Страна: США, Израиль, Франция, Германия
Студия: Black Bear Pictures, Bord Cadre Films
Жанр: Триллер
Год выпуска: 2019
Продолжительность: 01:56:38
Перевод: Любительский (многоголосый, закадровый) | HDRezka Studio |
Субтитры: Русские (форс.) - отдельно, английские (форс.) хардсаб
Оригинальная аудиодорожка: Отсутствует-Режиссер: Юваль Адлер / Yuval Adler-В ролях: Дайан Крюгер, Мартин Фриман, Кэс Анвар, Ротем Кейнан, Лана Эттинджер, Йоав Леви, Йоханан Херсон, Кейт Николс, Даниэль Вандельт, Юлия Шнайдер-Описание: Рэйчел бегло говорит на нескольких языках. Идеальная квалификация для агента израильской службы внешней разведки Моссад, которая ее завербовала. Офицер связи Томас высоко ценит ее. Оперативное командование в Израиле также доверяет ей, и поэтому Рэйчел отправляется в Тегеран с секретной миссией. Очарованная этой чужой страной, она тщательно вписывается в повседневную жизнь и заводит роман с бизнесменом Фархадом, человеком, за которым ей поручили шпионить. Но ее миссия становится все более и более требовательной и опасной, пока она наконец не решает бросить задание. Она оставляет загадочное сообщение для Томаса, который должен найти ее, прежде чем она станет угрозой для Израиля.- -Качество видео: WEB-DLRip | The.Operative.2019.WEB-DL.1080p |
Формат видео: AVI
Видео: 720x304 (2,35:1), 24 fps, XviD build 73 ~1592 kbps avg, 0.30 bit/pixel
Аудио: 48 kHz, AC3 Dolby Digital, 2/0 (L,R) ch, ~192 kbps | RUS | HDRezka Studio | -

[box]Сэмпл[/box]-

MediaInfo

Код:Общее
Полное имя : C:\Users\Desktop\The.Operative.2019.WEB-DLRip.1.46Gb.MegaPeer\The.Operative.2019.WEB-DLRip.1.46Gb.MegaPeer.avi
Формат : AVI
Формат/Информация : Audio Video Interleave
Размер файла : 1,46 Гбайт
Продолжительность : 1 ч. 56 м.
Общий поток : 1793 Кбит/сек
Программа кодирования : VirtualDubMod 1.5.10.3 | www.virtualdub-fr.org || (build 2550/release)
Библиотека кодирования : VirtualDubMod build 2550/release
Видео
Идентификатор : 0
Формат : MPEG-4 Visual
Профиль формата : Advanced Simple@L5
Настройки формата : BVOP1 / Custom Matrix
Параметр BVOP формата : 1
Параметр QPel формата : Нет
Параметр GMC формата : Без точки перехода
Параметр матрицы формата : Выборочная
Идентификатор кодека : XVID
Идентификатор кодека/Подсказка : XviD
Продолжительность : 1 ч. 56 м.
Битрейт : 1592 Кбит/сек
Ширина : 720 пикселей
Высота : 304 пикселя
Соотношение сторон : 2,35:1
Частота кадров : 24,000 кадра/сек
Цветовое пространство : YUV
Субдискретизация насыщенности : 4:2:0
Битовая глубина : 8 бит
Тип развёртки : Прогрессивная
Метод сжатия : С потерями
Бит/(Пиксели*Кадры) : 0.303
Размер потока : 1,30 Гбайт (89%)
Библиотека кодирования : XviD 73
Аудио
Идентификатор : 1
Формат : AC-3
Формат/Информация : Audio Coding 3
Коммерческое название : Dolby Digital
Идентификатор кодека : 2000
Продолжительность : 1 ч. 56 м.
Вид битрейта : Постоянный
Битрейт : 192 Кбит/сек
Каналы : 2 канала
ChannelLayout : L R
Частота : 48,0 КГц
Частота кадров : 31,250 кадров/сек (1536 SPF)
Битовая глубина : 16 бит
Метод сжатия : С потерями
Размер потока : 160 Мбайт (11%)
Выравнивание : Разделение по промежуткам
Продолжительность промежутка : 42 мс. (1,00 видеокадр)
Время предзагрузки промежутка : 500 мс.
ServiceKind/String : Complete Main

Скриншоты с названием фильма

Скриншоты

[cybertorrent.ru].t5219.torrent 
Торрент: Зарегистрирован [ 2019-08-12 16:23 ] · 0F2AB4A8D7DE225AF00FA571512A1BEAE8B1B810

Скачать .torrent

Скачать

15 KB

Статус: проверено
Скачан: 0 раз
Размер: 1,46 GB
terms.php
[Профиль] [ЛС]
Показать сообщения:    
Ответить на тему

Текущее время: 19-Авг 06:05

Часовой пояс: UTC ± 0



Вы не можете начинать темы
Вы не можете отвечать на сообщения
Вы не можете редактировать свои сообщения
Вы не можете удалять свои сообщения
Вы не можете голосовать в опросах
Вы не можете прикреплять файлы к сообщениям
Вы можете скачивать файлы