Удачи тебе, Ворчун / Ilosia aikoja, Mielensäpahoittaja / Happier Times, Grump! (Тийна Люми / Tiina Lymi) [2018, Финляндия, комедия, драма, WEB-DLRip] MVO (Mallorn Studio)

Ответить на тему
Статистика раздачи
Размер:  1,46 GB   |    Зарегистрирован:  1 месяц 5 дней   |    Скачан:  0 раз

Полного источника не было: Никогда

   
 
Автор Сообщение

солнышко ®

Пол: Не указан

Стаж: 6 месяцев 6 дней

Сообщений: 565

Создавать темы 13-Авг-2019 16:44

[Цитировать]

Удачи тебе, Ворчун / Ilosia aikoja, Mielensäpahoittaja / Happier Times, Grump! Страна: Финляндия
Жанр: комедия, драма
Год выпуска: 2018
Продолжительность: 01:50:35
Перевод: Любительский (многоголосый закадровый) - «Mallorn Studio»
Субтитры: нет
Оригинальная аудиодорожка: нет
Режиссер: Тийна Люми / Tiina Lymi
В ролях: Хейкки Киннунен, Сату Туули Карху, Элина Книхтиля, Яни Воланен, Иикка Форсс, Мари Перанкоски, Сулеви Пелтола, Янне Реинкаинен, Лотта Каихуа, Петра Фрэй.
Описание: Ворчун проводил в последний путь свою жену и хочет умереть, потому что все дела переделаны и смысл жизни пропал. Но вместе с мрачными мыслями к нему неожиданно приходит новая забота. Его 17-летняя внучка София оказалась в беде, и остро нуждается в упрямстве и мудрости своего деда. Так Ворчун обретает новый смысл жизни и желание бороться за счастье близкого человека.

Доп. информация: Продолжение фильма 2014 года «Ворчун»
За видеоряд, а также за перевод фильма благодарность адресуется porcellus
Русская озвучка от «Mallorn Studio» (с рекламой) взята из раздачи PlagueStudio, (Kinozal)
Синхронизация русской звуковой дорожки (без рекламы) - Arle-kino

Качество видео: WEB-DLRip
Формат видео: AVI
Видео: 720x304 (2.37:1), 23.976 fps, XviD build 50 ~1693 kbps avg, 0.32 bit/pixel
Аудио: 48 kHz, AC3 Dolby Digital, 2/0 (L,R) ch, ~192 kbps

MediaInfo

General
Complete name : D:\Public\Ilosia aikoja, Mielensäpahoittaja (Happier Times, Grump) - 2018, WEB-DLRip, Rus.avi
Format : AVI
Format/Info : Audio Video Interleave
File size : 1.46 GiB
Duration : 1 h 50 min
Overall bit rate : 1 895 kb/s
Writing application : VirtualDubMod 1.5.10.2 (build 2540/release)
Writing library : VirtualDubMod build 2540/release
Video
ID : 0
Format : MPEG-4 Visual
Format profile : Advanced Simple@L5
Format settings, BVOP : 1
Format settings, QPel : No
Format settings, GMC : No warppoints
Format settings, Matrix : Default (MPEG)
Codec ID : XVID
Codec ID/Hint : XviD
Duration : 1 h 50 min
Bit rate : 1 694 kb/s
Width : 720 pixels
Height : 304 pixels
Display aspect ratio : 2.35:1
Frame rate : 23.976 (24000/1001) FPS
Color space : YUV
Chroma subsampling : 4:2:0
Bit depth : 8 bits
Scan type : Progressive
Compression mode : Lossy
Bits/(Pixel*Frame) : 0.323
Stream size : 1.31 GiB (89%)
Writing library : XviD 1.2.1 (UTC 2008-12-04)
Audio
ID : 1
Format : AC-3
Format/Info : Audio Coding 3
Format settings, Endianness : Big
Codec ID : 2000
Duration : 1 h 50 min
Bit rate mode : Constant
Bit rate : 192 kb/s
Channel(s) : 2 channels
Channel positions : Front: L R
Sampling rate : 48.0 kHz
Frame rate : 31.250 FPS (1536 SPF)
Bit depth : 16 bits
Compression mode : Lossy
Stream size : 152 MiB (10%)
Alignment : Split accross interleaves
Interleave, duration : 42 ms (1.00 video frame)
Interleave, preload duratio : 500 ms
Service kind : Complete Main

Скриншот c названием фильма

Скриншоты

[cybertorrent.ru].t5248.torrent 
Торрент: Зарегистрирован [ 2019-08-13 16:44 ] · B6FB9C7DD4F3741DDEB0BD2BD1491F267AC8CF3F

Скачать .torrent

Скачать

15 KB

Статус: проверено
Скачан: 0 раз
Размер: 1,46 GB
terms.php
[Профиль] [ЛС]
Показать сообщения:    
Ответить на тему

Текущее время: 19-Сен 04:25

Часовой пояс: UTC ± 0



Вы не можете начинать темы
Вы не можете отвечать на сообщения
Вы не можете редактировать свои сообщения
Вы не можете удалять свои сообщения
Вы не можете голосовать в опросах
Вы не можете прикреплять файлы к сообщениям
Вы можете скачивать файлы

Партнеры

Выражаем благодарность всем людям, внесшим вклад в наш сайт в далёком прошлом. Мы помним Вас, гордимся Вами и ждём Вас обратно!

Интересное в сети