Путешествие в будущее / Побег в будущее / Flykten till framtiden (Джаана Фомин, Ульф Мальмрос / Jaana Fomin, Ulf Malmros) [2016, Швеция, Мелодрама, комедия, WEBRip] DVO

Ответить на тему
Статистика раздачи
Размер:  1,41 GB   |    Зарегистрирован:  1 месяц 5 дней   |    Скачан:  0 раз

Полного источника не было: Никогда

   
 
Автор Сообщение

солнышко ®

Пол: Не указан

Стаж: 6 месяцев 6 дней

Сообщений: 565

Создавать темы 13-Авг-2019 16:44

[Цитировать]

Путешествие в будущее / Побег в будущее / Flykten till framtiden
Страна: Швеция
Жанр: Мелодрама, комедия
Год выпуска: 2016
Продолжительность: 01:38:19
Перевод: Любительский (двухголосый закадровый)
Субтитры: нет
Режиссер: Джаана Фомин, Ульф Мальмрос / Jaana Fomin, Ulf Malmros
В ролях: Henrik Dorsin, Elias Palin, Виктория Дайрстад, Johan Ulveson, Иа Лангхаммер, Петер
Карлберг, Малин Перссон, Caisa-Stina Forssberg, Анна Бйелькеру, Ханна Бьорн
Описание: 1973 год. Сванте — обычный парень из Стокгольма, который работает продавцом в
магазине грампластинок. Жизнь скучна и однообразна. Но всё радикально меняется, когда
однажды вечером на местной станции метро он обнаруживает портал, который переносит его
прямиком в 2016 год.
Доп. информация: Дорожка с DVO синхронизирована и наложена ale_x2008 при помощи Sony Vegas и VirtualDubMod.
За предоставленную дорожку из сети благодарим - Скрытый Смысл

Релиз
Сэмпл: https://yadi.sk/i/ZAarkfJN1A7nug
Качество видео: WEBRip
Формат видео: AVI
Видео: XviD build 50, 720x304 (2.37:1), 24 fps, 1845 kbps avg, 0.35 bit/pixel
Аудио: AC3 Dolby Digital, 48000Hz, 2/0 (L,R) ch (stereo), 192 kbps avg

MediaInfo

Побег в будущее (Flykten till framtiden) [by ale_X2008].avi
Format : AVI
Format/Info : Audio Video Interleave
File size : 1.41 GiB
Duration : 1 h 38 min
Overall bit rate : 2 047 kb/s
Movie name : Побег в будущее (Flykten till framtiden) WEBRip Sve
Director : WEBRip by ale_x2008
Genre : Comedy/Drama/Romance
Writing application : VirtualDubMod 1.5.10.3 (build 2550/release)
Original source form/Name : Movie
Copyright : Edich2
Comment : 09.08.2019
Video
ID : 0
Format : MPEG-4 Visual
Format profile : Advanced Simple@L5
Format settings : BVOP1
Format settings, BVOP : 1
Format settings, QPel : No
Format settings, GMC : No warppoints
Format settings, Matrix : Default (MPEG)
Codec ID : XVID
Codec ID/Hint : XviD
Duration : 1 h 38 min
Bit rate : 1 846 kb/s
Width : 720 pixels
Height : 304 pixels
Display aspect ratio : 2.35:1
Frame rate : 24.000 FPS
Color space : YUV
Chroma subsampling : 4:2:0
Bit depth : 8 bits
Scan type : Progressive
Compression mode : Lossy
Bits/(Pixel*Frame) : 0.351
Stream size : 1.27 GiB (90%)
Writing library : XviD 1.2.1 (UTC 2008-12-04)
Audio
ID : 1
Format : AC-3
Format/Info : Audio Coding 3
Codec ID : 2000
Duration : 1 h 38 min
Bit rate mode : Constant
Bit rate : 192 kb/s
Channel(s) : 2 channels
Channel positions : Front: L R
Sampling rate : 48.0 kHz
Frame rate : 31.250 FPS (1536 SPF)
Bit depth : 16 bits
Compression mode : Lossy
Stream size : 135 MiB (9%)
Alignment : Split accross interleaves
Interleave, duration : 42 ms (1.00 video frame)
Interleave, preload duratio : 500 ms
Service kind : Complete Main

Скриншоты


[cybertorrent.ru].t5249.torrent 
Торрент: Зарегистрирован [ 2019-08-13 16:44 ] · 26019B1EDFA4721318408A27DED39C7EF1D22A02

Скачать .torrent

Скачать

15 KB

Статус: проверено
Скачан: 0 раз
Размер: 1,41 GB
terms.php
[Профиль] [ЛС]
Показать сообщения:    
Ответить на тему

Текущее время: 19-Сен 04:07

Часовой пояс: UTC ± 0



Вы не можете начинать темы
Вы не можете отвечать на сообщения
Вы не можете редактировать свои сообщения
Вы не можете удалять свои сообщения
Вы не можете голосовать в опросах
Вы не можете прикреплять файлы к сообщениям
Вы можете скачивать файлы

Партнеры

Выражаем благодарность всем людям, внесшим вклад в наш сайт в далёком прошлом. Мы помним Вас, гордимся Вами и ждём Вас обратно!

Интересное в сети