Сколько живет любовь / Серии: 1-4 из 4 (Денис Елеонский) [2019, мелодрама, WEBRip]

Ответить на тему
Статистика раздачи
Размер:  2,41 GB   |    Зарегистрирован:  5 месяцев 30 дней   |    Скачан:  0 раз

Полного источника не было: Никогда

   
 
Автор Сообщение

sss777sss ®

Пол: Не указан

Стаж: 6 месяцев 5 дней

Сообщений: 423

Создавать темы 18-Мар-2019 13:06

[Цитировать]

Сколько живет любовь
Год выпуска: 2019
Производство: Эволюшн Пикчерс
Жанр: мелодрама
Продолжительность: ~00:46:00 серия
Субтитры: нет
Режиссёр: Денис Елеонский
В ролях: Вячеслав Чепурченко, Ольга Павловец, Юлия Рудина, Алексей Федькин, Наталья Бурмистрова, Андрей Полищук, Евгений Зарубин, Вячеслав Коробицин, Любовь Макеева, Татьяна Мишина, Елена Руфанова, Михаил Соловьёв, Мария Шманина
Описание: Учительнице математики Вере Алексеевне трудно найти общий язык с отчаянным хулиганом, второгодником Сашей. Одиннадцатиклассник рискует остаться без аттестата даже со второй попытки. Вера принимает решение подтянуть парня по своему предмету, но во время занятий Саша внезапно признается ей в любви. Вера замужем, ее пугает создавшаяся ситуация, разница в возрасте. А еще больше – настойчивость Саши, который добивается своей цели, невзирая на препятствия… Прошло много лет… Александр стал президентом крупной финансовой компании, дела его идут в гору и у него счастливый брак. Единственное, что омрачает семейную жизнь – отсутствие детей. А еще, словно капли яда, потихоньку отравляющие жизнь пары, окружающие и осуждающие их близкие люди. Ведь жена Саши намного его старше... Смогут ли супруги сохранить чувство, когда весь мир против них?

Реклама: Нет.
Кино-театр
Все раздачи сериала
Sample
Качество: WEBRip - Files-x
Формат: AVI
Видео кодек: XviD
Аудио кодек: AC3
Видео: 720x400 (1.80:1), 25 fps, XviD ~1600 kbps avg, 0.222 bit/pixel
Аудио: 48.0 kHz, AC3 Dolby Digital, 2/0 (L,R) ch, ~ 192 kbps

MI

General
Complete name : D:\Skolko.zhivet.lyubov.(2019).WEB-DLRip. Files-x\01. Skolko.zhivet.lyubov.(2019).WEB-DLRip. Files-x.avi
Format : AVI
Format/Info : Audio Video Interleave
File size : 594 MiB
Duration : 46 min 5 s
Overall bit rate : 1 802 kb/s
Writing application : VirtualDubMod 1.5.10.3 | www.virtualdub-fr.org || (build 2550/release)
Writing library : VirtualDubMod build 2550/release
Video
ID : 0
Format : MPEG-4 Visual
Format profile : Advanced Simple@L5
Format settings : BVOP1 / Custom Matrix
Format settings, BVOP : 1
Format settings, QPel : No
Format settings, GMC : No warppoints
Format settings, Matrix : Custom
Codec ID : XVID
Codec ID/Hint : XviD
Duration : 46 min 5 s
Bit rate : 1 600 kb/s
Width : 720 pixels
Height : 400 pixels
Display aspect ratio : 16:9
Frame rate : 25.000 FPS
Color space : YUV
Chroma subsampling : 4:2:0
Bit depth : 8 bits
Scan type : Progressive
Compression mode : Lossy
Bits/(Pixel*Frame) : 0.222
Stream size : 528 MiB (89%)
Writing library : XviD 73
Audio
ID : 1
Format : AC-3
Format/Info : Audio Coding 3
Codec ID : 2000
Duration : 46 min 5 s
Bit rate mode : Constant
Bit rate : 192 kb/s
Channel(s) : 2 channels
Channel positions : Front: L R
Sampling rate : 48.0 kHz
Frame rate : 31.250 FPS (1536 SPF)
Bit depth : 16 bits
Compression mode : Lossy
Stream size : 63.3 MiB (11%)
Alignment : Split accross interleaves
Interleave, duration : 40 ms (1.00 video frame)
Interleave, preload duratio : 500 ms
Service kind : Complete Main

Скриншоты


[cybertorrent.ru].t528.torrent 
Торрент: Зарегистрирован [ 2019-03-18 13:08 ] · BC2DF6148A29028BF817D47C0D0EBFA0D0C73F9C

Скачать .torrent

Скачать

13 KB

Статус: проверено
Скачан: 0 раз
Размер: 2,41 GB
terms.php
[Профиль] [ЛС]
Показать сообщения:    
Ответить на тему

Текущее время: 17-Сен 19:33

Часовой пояс: UTC ± 0



Вы не можете начинать темы
Вы не можете отвечать на сообщения
Вы не можете редактировать свои сообщения
Вы не можете удалять свои сообщения
Вы не можете голосовать в опросах
Вы не можете прикреплять файлы к сообщениям
Вы можете скачивать файлы

Партнеры

Выражаем благодарность всем людям, внесшим вклад в наш сайт в далёком прошлом. Мы помним Вас, гордимся Вами и ждём Вас обратно!

Интересное в сети