Солдат с другой планеты / Пришелец / Zone Troopers (Дэнни Билсон / Danny Bilson) [1985, США, Фантастика, боевик, военный, HDRip] DVO + Original Eng

Ответить на тему
Статистика раздачи
Размер:  1,44 GB   |    Зарегистрирован:  3 месяца 1 день   |    Скачан:  0 раз

Полного источника не было: Никогда

   
 
Автор Сообщение

serzh ®

Пол: Не указан

Стаж: 3 месяца 7 дней

Сообщений: 274

Создавать темы 18-Мар-2019 13:06

[Цитировать]

Солдат с другой планеты / Пришелец / Zone Troopers
Страна: США
Жанр: Фантастика, боевик, военный
Год выпуска: 1985
Продолжительность: 01:25:51
Перевод: Профессиональный (двухголосый закадровый) Ракурс
Субтитры: нет
Оригинальная аудиодорожка: английский
Режиссер: Дэнни Билсон / Danny Bilson
В ролях: Тим Томерсон
Тимоти Ван Паттен
Арт ЛаФлёр
Бифф Мэнард
Уильям Полсон
Петер Бом
Макс Турилли
Юджин Брелл
Джон Лимер
Брюс МакГуайр
Описание: Италия, зима 1944 года. Подразделение американской армии попадает в засаду немцев. После боя в живых остаются лишь четверо американцев. Заблудившись в лесу, они страдают от холода и голода, но готовы как можно дороже продать свои жизни. Вдруг неподалеку от них совершает аварийную посадку инопланетный космический корабль!
Правда, вначале солдаты отказываются верить своим глазам, и только Малыш, любитель газетно-журнальных комиксов и фантастическо-приключенческой литературы, сразу понимает, что к чему. Обнаружив, что один из пилотов корабля остался жив, американцы прочесывают лес и находят пришельца, но на этом их приключения только начинаются.
Впереди будут «бои местного значения», кратковременный плен, чудодейственное спасение, общение с пришельцем, способным исполнять любые желания, и относительно крупное сражение с применением инопланетных аннигиляторов.
Доп. информация: Звуковая дорожка снята и синхронизирована мною с VHS , видеоряд из CG
Фильм озвучен студией Ракурс по заказу Екатеринбург Арт
Роли озвучивали Александр Рахленко и мужик озвучивавший крысу Рокфорда в мультсериале Чип и Дэйл
Сэмпл: https://yadi.sk/i/CBk8FC3rSSO9kA
Качество видео: HDRip
Формат видео: AVI
Видео: XviD , 720x384(1.88:1), 23.976 fps, 2 004 Kbps
Аудио: AC3 , 48 kHz , 192.00 kbps avg , 2/0 (L,R) ch
Аудио 2: AC3 , 48 kHz , 192.00 kbps avg , 2/0 (L,R) ch

MediaInfo

Complete name Солдат с другой планеты 1985 (Ракурс).avi
Format : AVI
Format/Info : Audio Video Interleave
File size : 1.44 GiB
Duration : 1h 25mn
Overall bit rate : 2 402 Kbps
Writing application : VirtualDubMod 1.5.10.3 | www.virtualdub-fr.org || (build 2550/release)
Writing library : VirtualDubMod build 2550/release
Video
ID : 0
Format : MPEG-4 Visual
Format profile : Advanced Simple@L5
Format settings, BVOP : 1
Format settings, QPel : No
Format settings, GMC : No warppoints
Format settings, Matrix : Custom
Codec ID : XVID
Codec ID/Hint : XviD
Duration : 1h 25mn
Bit rate : 2 004 Kbps
Width : 720 pixels
Height : 384 pixels
Display aspect ratio : 1.85:1
Frame rate : 23.976 (23976/1000) fps
Color space : YUV
Chroma subsampling : 4:2:0
Bit depth : 8 bits
Scan type : Progressive
Compression mode : Lossy
Bits/(Pixel*Frame) : 0.302
Stream size : 1.20 GiB (83%)
Writing library : XviD 73
Audio #1
ID : 1
Format : AC-3
Format/Info : Audio Coding 3
Mode extension : CM (complete main)
Format settings, Endianness : Big
Codec ID : 2000
Duration : 1h 25mn
Bit rate mode : Constant
Bit rate : 192 Kbps
Channel(s) : 2 channels
Channel positions : Front: L R
Sampling rate : 48.0 KHz
Frame rate : 31.250 fps (1536 spf)
Compression mode : Lossy
Delay relative to video : 20ms
Stream size : 118 MiB (8%)
Alignment : Split accross interleaves
Interleave, duration : 42 ms (1.00 video frame)
Interleave, preload duratio : 500 ms
Audio #2
ID : 2
Format : AC-3
Format/Info : Audio Coding 3
Mode extension : CM (complete main)
Format settings, Endianness : Big
Codec ID : 2000
Duration : 1h 25mn
Bit rate mode : Constant
Bit rate : 192 Kbps
Channel(s) : 2 channels
Channel positions : Front: L R
Sampling rate : 48.0 KHz
Frame rate : 31.250 fps (1536 spf)
Compression mode : Lossy
Delay relative to video : 20ms
Stream size : 118 MiB (8%)
Alignment : Split accross interleaves
Interleave, duration : 42 ms (1.00 video frame)
Interleave, preload duratio : 500 ms
[cybertorrent.ru].t531.torrent 
Торрент: Зарегистрирован [ 2019-03-18 13:08 ] · 2CDCFB66BA80555A1721DD5831D7D4417439950F

Скачать .torrent

Скачать

15 KB

Статус: проверено
Скачан: 0 раз
Размер: 1,44 GB
terms.php
[Профиль] [ЛС]
Показать сообщения:    
Ответить на тему

Текущее время: 19-Июн 23:06

Часовой пояс: UTC ± 0



Вы не можете начинать темы
Вы не можете отвечать на сообщения
Вы не можете редактировать свои сообщения
Вы не можете удалять свои сообщения
Вы не можете голосовать в опросах
Вы не можете прикреплять файлы к сообщениям
Вы можете скачивать файлы