Звёзды (Александр Новиков-Янгинов) [2018, драма, комедия, WEB-DLRip]

Ответить на тему
Статистика раздачи
Размер:  744 MB   |    Зарегистрирован:  3 месяца 7 дней   |    Скачан:  1 раз

Полного источника не было: 2 месяца 18 дней

   
 
Автор Сообщение

Rodin ®

Пол: Не указан

Стаж: 3 месяца 13 дней

Сообщений: 135

Создавать темы 18-Мар-2019 13:06

[Цитировать]

Звёзды
Страна: Россия
Жанр: драма, комедия
Год выпуска: 2018
Продолжительность: 01:37:47
Субтитры: нет-Режиссер:
Александр Новиков-Янгинов-В ролях:
Виктор Сухоруков, Сейдулла Молдаханов, Амаду Мамадаков, Георгий Пицхелаури, Игорь Гаспарян, Елена Сачук, Алеся Гузько-Описание:
Главный герой, родом из Узбекистана и русский по паспорту, отправляется на заработки в Москву: его дочери необходимо дорогостоящее лечение. В столице ставшей для него чужой родины учитель русского языка вынужден работать штукатуром, строителем и продавцом на рынке. В круговороте событий герой оказывается перед сложным выбором: предать свои ценности или спасти дочь ценой собственных убеждений.-Качество видео: WEB-DLRip
Формат видео: AVI
Видео: 688x288 (2.39:1), 24.000 fps, XviD build 73 ~926 kbps avg, 0.20 bit/pixel
Аудио: 48 kHz, MPEG Layer 3, 2 ch, ~128.00 kbps avg-[box]Сэмпл[/box]-

MediaInfo

Код:Формат : AVI
Формат/Информация : Audio Video Interleave
Размер файла : 744 Мбайт
Продолжительность : 1 ч. 37 м.
Общий поток : 1064 Кбит/сек
Программа кодирования : VirtualDubMod 1.5.10.3 | www.virtualdub-fr.org || (build 2550/release)
Библиотека кодирования : VirtualDubMod build 2550/release
Видео
Идентификатор : 0
Формат : MPEG-4 Visual
Профиль формата : Advanced Simple@L5
Настройки формата : BVOP1 / Custom Matrix
Параметр BVOP формата : 1
Параметр QPel формата : Нет
Параметр GMC формата : Без точки перехода
Параметр матрицы формата : Выборочная
Идентификатор кодека : XVID
Идентификатор кодека/Подсказка : XviD
Продолжительность : 1 ч. 37 м.
Битрейт : 927 Кбит/сек
Ширина : 688 пикселей
Высота : 288 пикселей
Соотношение сторон : 2,40:1
Частота кадров : 24,000 кадра/сек
Цветовое пространство : YUV
Субдискретизация насыщенности : 4:2:0
Битовая глубина : 8 бит
Тип развёртки : Прогрессивная
Метод сжатия : С потерями
Бит/(Пиксели*Кадры) : 0.195
Размер потока : 648 Мбайт (87%)
Библиотека кодирования : XviD 73
Аудио
Идентификатор : 1
Формат : MPEG Audio
Версия формата : Version 1
Профиль формата : Layer 3
Идентификатор кодека : 55
Идентификатор кодека/Подсказка : MP3
Продолжительность : 1 ч. 37 м.
Вид битрейта : Постоянный
Битрейт : 128 Кбит/сек
Каналы : 2 канала
Частота : 48,0 КГц
Частота кадров : 41,667 кадра/сек (1152 SPF)
Метод сжатия : С потерями
Размер потока : 89,5 Мбайт (12%)
Выравнивание : Соединение по промежуткам
Продолжительность промежутка : 42 мс. (1,00 видеокадр)
Время предзагрузки промежутка : 504 мс.
Библиотека кодирования : LAME3.99r
Настройки программы : -m s -V 4 -q 2 -lowpass 17 -b 128

Скриншоты


[cybertorrent.ru].t533.torrent 
Торрент: Зарегистрирован [ 2019-03-18 13:08 ] · D8266DF8F575878A1A14CCD7B0E7AC9E64504F2D

Скачать .torrent

Скачать

15 KB

Статус: проверено
Скачан: 1 раз
Размер: 744 MB
terms.php
[Профиль] [ЛС]
Показать сообщения:    
Ответить на тему

Текущее время: 25-Июн 21:36

Часовой пояс: UTC ± 0



Вы не можете начинать темы
Вы не можете отвечать на сообщения
Вы не можете редактировать свои сообщения
Вы не можете удалять свои сообщения
Вы не можете голосовать в опросах
Вы не можете прикреплять файлы к сообщениям
Вы можете скачивать файлы