Позор / Shame (Стив Джодрелл / Steve Jodrell) [1988, Австралия, Драма, VHSRip] AVO (А. Гаврилов)

Ответить на тему
Статистика раздачи
Размер:  699 MB   |    Зарегистрирован:  1 месяц 3 дня   |    Скачан:  0 раз

Полного источника не было: Никогда

   
 
Автор Сообщение

serzh ®

Пол: Не указан

Стаж: 1 месяц 9 дней

Сообщений: 115

Создавать темы 18-Мар-2019 13:06

[Цитировать]

Позор / Shame
Страна: Австралия
Жанр: Драма
Год выпуска: 1988
Продолжительность: 1:33:38
Перевод: Авторский (одноголосый закадровый) Андрей Гаврилов
Субтитры: нет
Оригинальная аудиодорожка: нет
Режиссер: Стив Джодрелл / Steve Jodrell
В ролях: Деборра-Ли Фёрнесс, Тони Бэрри, Симона Бьюкэнэн, Джиллиан Джонс, Маргарет Форд, Дэвид Франклин, Билл МакКласки, Эллисон Тейлор, Фил Дин
Описание: Аста Кэдэлл — женщина-адвокат, путешествующая на мотоцикле по австралийской глубинке. Она останавливается в маленьком городке, который находится в Западной Австралии. Мотоцикл Асты ломается и она идёт просить помощи в первый попавшийся дом. Дочь хозяина этого дома недавно была изнасилована сыном очень влиятельных, по меркам этого городка людей. Аста пытается убедить её выдвинуть обвинения против насильника, но консервативное местное население сделает всё, чтобы сохранить преступление в тайне…
Сэмпл: http://sendfile.su/1482297
Качество видео: VHSRip
Формат видео: AVI
Видео: MPEG-4 Visual, 512 x 384, 25.000 fps, 905 Kbps
Аудио: MPEG Audio, 48.0 KHz, 128 Kbps, Constant

MediaInfo

Формат : AVI
Формат/Информация : Audio Video Interleave
Размер файла : 699 Мбайт
Продолжительность : 1 ч. 33 м.
Общий поток : 1043 Кбит/сек
Название фильма : Shame
Режиссёр : alenavova
Жанр : Drama
Программа кодирования : VirtualDubModRus 1.5.10.2 (build 2542/release)
Формат оригинала/Имя : Movie
Авторское право : VHSRip by alenavova
Примечание : 21.11.10
Видео
Идентификатор : 0
Формат : MPEG-4 Visual
Профиль формата : Advanced Simple@L5
Настройки формата : BVOP1
Параметр BVOP формата : 1
Параметр QPel формата : Нет
Параметр GMC формата : Без точки перехода
Параметр матрицы формата : Default (MPEG)
Режим смешивания : Сжатый битовый поток
Идентификатор кодека : XVID
Идентификатор кодека/Подсказка : XviD
Продолжительность : 1 ч. 33 м.
Битрейт : 905 Кбит/сек
Ширина : 512 пикселей
Высота : 384 пикселя
Соотношение сторон : 4:3
Частота кадров : 25,000 кадров/сек
Цветовое пространство : YUV
Субдискретизация насыщенности : 4:2:0
Битовая глубина : 8 бит
Тип развёртки : Прогрессивная
Метод сжатия : С потерями
Бит/(Пиксели*Кадры) : 0.184
Размер потока : 606 Мбайт (87%)
Библиотека кодирования : XviD 1.2.0.dev47 (UTC 2006-11-01)
Аудио
Идентификатор : 1
Формат : MPEG Audio
Версия формата : Version 1
Профиль формата : Layer 3
Настройки формата : Joint stereo / MS Stereo
Идентификатор кодека : 55
Идентификатор кодека/Подсказка : MP3
Продолжительность : 1 ч. 33 м.
Вид битрейта : Постоянный
Битрейт : 128 Кбит/сек
Каналы : 2 канала
Частота : 48,0 КГц
Частота кадров : 41,667 кадра/сек (1152 SPF)
Метод сжатия : С потерями
Размер потока : 85,7 Мбайт (12%)
Выравнивание : Соединение по промежуткам
Продолжительность промежутка : 40 мс. (1,00 видеокадр)
Время предзагрузки промежутка : 504 мс.
Библиотека кодирования : LAME3.97

Скриншоты


Доп. информация: Раздавать буду по возможности и необходимости.

Если ваш рейтинг упадет ниже 0,3, вы не сможете скачивать торренты! Подробнее о рейтинге.

[cybertorrent.ru].t535.torrent 
Торрент: Зарегистрирован [ 2019-03-18 13:08 ] · D9974705FB888692702305796EC5AE29447BEB14

Скачать .torrent

Скачать

14 KB

Статус: проверено
Скачан: 0 раз
Размер: 699 MB
terms.php
[Профиль] [ЛС]
Показать сообщения:    
Ответить на тему

Текущее время: 21-Апр 14:32

Часовой пояс: UTC ± 0



Вы не можете начинать темы
Вы не можете отвечать на сообщения
Вы не можете редактировать свои сообщения
Вы не можете удалять свои сообщения
Вы не можете голосовать в опросах
Вы не можете прикреплять файлы к сообщениям
Вы можете скачивать файлы