Три в одном / Сезон: 5 / Серии: 1-2 из 2 (Илья Хотиненко) [2019, детектив, криминал, WEBRip]

Ответить на тему
Статистика раздачи
Размер:  1,15 GB   |    Зарегистрирован:  3 месяца 1 день   |    Скачан:  0 раз

Полного источника не было: Никогда

   
 
Автор Сообщение

sss777sss ®

Пол: Не указан

Стаж: 3 месяца 7 дней

Сообщений: 318

Создавать темы 18-Мар-2019 13:06

[Цитировать]

Три в одном 5
Год выпуска: 2019
Производство: Свэлл Фильм
Жанр: детектив, криминал
Продолжительность: ~00:44:00 серия
Субтитры: нет
Режиссёр: Илья Хотиненко
В ролях: Наталья Рычкова, Александр Ратников, Артём Семакин, Сергей Белякович , Андрей Карако, Сергей Паршин, Роман Полянский, Юлия Зимина, Александр Стефанцов
Описание: Чтобы залатать дыры в семейном бюджете и устроить себе и Журавлеву заслуженный отдых, Инга сдает свою квартиру в аренду. Первый же гость Николай становится также клиентом ее агентства: он приехал в Москву, чтобы помириться с сестрой. Но прежде, чем Инга успевает с ней встретиться, женщина неожиданно исчезает. Зато в агентстве появляется еще одна клиентка Виктория, и сообщает некоторые подробности из жизни Журавлева, в которые он сам вряд ли захотел бы посвятить Ингу..

Реклама: Нет.
Кино-театр
Все раздачи сериала
Sample
Качество: WEBRip - Files-x
Формат: AVI
Видео кодек: XviD
Аудио кодек: AC3
Видео: 720x400 (1.80:1), 25 fps, XviD build 73 ~1600 kbps avg, 0.222 bit/pixel
Аудио: 48.0 kHz, AC3 Dolby Digital, 2/0 (L,R) ch, ~ 192 kbps

MI

General
Complete name : D:\Три в одном.S05.(2019).WEB-DLRip.Files-x\01.Три в одном.S05.(2019).WEB-DLRip.Files-x.avi
Format : AVI
Format/Info : Audio Video Interleave
File size : 568 MiB
Duration : 44 min 5 s
Overall bit rate : 1 802 kb/s
Writing application : VirtualDubMod 1.5.10.3 | www.virtualdub-fr.org || (build 2550/release)
Writing library : VirtualDubMod build 2550/release
Video
ID : 0
Format : MPEG-4 Visual
Format profile : Advanced Simple@L5
Format settings : BVOP1 / Custom Matrix
Format settings, BVOP : 1
Format settings, QPel : No
Format settings, GMC : No warppoints
Format settings, Matrix : Custom
Codec ID : XVID
Codec ID/Hint : XviD
Duration : 44 min 5 s
Bit rate : 1 600 kb/s
Width : 720 pixels
Height : 400 pixels
Display aspect ratio : 16:9
Frame rate : 25.000 FPS
Color space : YUV
Chroma subsampling : 4:2:0
Bit depth : 8 bits
Scan type : Progressive
Compression mode : Lossy
Bits/(Pixel*Frame) : 0.222
Stream size : 505 MiB (89%)
Writing library : XviD 73
Audio
ID : 1
Format : AC-3
Format/Info : Audio Coding 3
Codec ID : 2000
Duration : 44 min 5 s
Bit rate mode : Constant
Bit rate : 192 kb/s
Channel(s) : 2 channels
Channel positions : Front: L R
Sampling rate : 48.0 kHz
Frame rate : 31.250 FPS (1536 SPF)
Bit depth : 16 bits
Compression mode : Lossy
Stream size : 60.6 MiB (11%)
Alignment : Split accross interleaves
Interleave, duration : 40 ms (1.00 video frame)
Interleave, preload duratio : 500 ms
Service kind : Complete Main

Скриншоты


[cybertorrent.ru].t540.torrent 
Торрент: Зарегистрирован [ 2019-03-18 13:08 ] · 4172982F620A6D07FB6A335F5830827B7CABB06E

Скачать .torrent

Скачать

12 KB

Статус: проверено
Скачан: 0 раз
Размер: 1,15 GB
terms.php
[Профиль] [ЛС]
Показать сообщения:    
Ответить на тему

Текущее время: 19-Июн 23:18

Часовой пояс: UTC ± 0



Вы не можете начинать темы
Вы не можете отвечать на сообщения
Вы не можете редактировать свои сообщения
Вы не можете удалять свои сообщения
Вы не можете голосовать в опросах
Вы не можете прикреплять файлы к сообщениям
Вы можете скачивать файлы