Восход Эдерлези / A.I. Rising (Лазар Бодрожа / Lazar Bodroza) [2018, Сербия, фантастика, драма, мелодрама, WEBRip] MVO (СВ Студия)

Ответить на тему
Статистика раздачи
Размер:  1,46 GB   |    Зарегистрирован:  1 месяц 7 дней   |    Скачан:  0 раз

Полного источника не было: Никогда

   
 
Автор Сообщение

солнышко ®

Пол: Не указан

Стаж: 1 месяц 13 дней

Сообщений: 192

Создавать темы 18-Мар-2019 13:05

[Цитировать]

Восход Эдерлези / A.I. Rising
Страна: Сербия
Жанр: фантастика, драма, мелодрама
Год выпуска: 2018
Продолжительность: 01:27:30-Перевод: Профессиональный (многоголосый закадровый) | СВ Студия | Ненормативная лексика
Субтитры: нет
Оригинальная аудиодорожка: нет-Режиссер: Лазар Бодрожа / Lazar Bodroza-В ролях: Себастьян Кавацца, Стоя, Маруша Майер, Кирсти Бестерман-Описание: 2048 год. Космонавт Милютин, работающий на корпорацию Эдерлези, отправляется в экспедицию к Альфе Центавра в компании андроида Нимани. Во время долгого путешествия он влюбляется в робота, и космонавту начинает казаться, будто женщина реальна.-Доп. инфо: За работу над дорожкой спасибо xfiles- -Качество видео: WEBRip
Формат видео: AVI
Видео: 720x272 (2.65:1), 23.976 fps, XviD build 73 ~1988 kbps avg, 0.42 bit/pixel
Аудио: 48 kHz, AC3 Dolby Digital, 3/2 (L,C,R,l,r) + LFE ch, ~384 kbps-[box]Сэмпл[/box]-

MediaInfo

Код:Формат : AVI
Формат/Информация : Audio Video Interleave
Размер файла : 1,46 Гбайт
Продолжительность : 1 ч. 27 м.
Общий поток : 2382 Кбит/сек
Программа кодирования : VirtualDubMod 1.5.10.3 | www.virtualdub-fr.org || (build 2550/release)
Библиотека кодирования : VirtualDubMod build 2550/release
Видео
Идентификатор : 0
Формат : MPEG-4 Visual
Профиль формата : Advanced Simple@L5
Настройки формата : BVOP1 / Custom Matrix
Параметр BVOP формата : 1
Параметр QPel формата : Нет
Параметр GMC формата : Без точки перехода
Параметр матрицы формата : Выборочная
Идентификатор кодека : XVID
Идентификатор кодека/Подсказка : XviD
Продолжительность : 1 ч. 27 м.
Битрейт : 1988 Кбит/сек
Ширина : 720 пикселей
Высота : 272 пикселя
Соотношение сторон : 2,647
Частота кадров : 23,976 (24000/1001) кадра/сек
Цветовое пространство : YUV
Субдискретизация насыщенности : 4:2:0
Битовая глубина : 8 бит
Тип развёртки : Прогрессивная
Метод сжатия : С потерями
Бит/(Пиксели*Кадры) : 0.423
Размер потока : 1,22 Гбайт (83%)
Библиотека кодирования : XviD 73
Аудио
Идентификатор : 1
Формат : AC-3
Формат/Информация : Audio Coding 3
Коммерческое название : Dolby Digital
Идентификатор кодека : 2000
Продолжительность : 1 ч. 27 м.
Вид битрейта : Постоянный
Битрейт : 384 Кбит/сек
Каналы : 6 каналов
Channel layout : L R C LFE Ls Rs
Частота : 48,0 КГц
Частота кадров : 31,250 кадров/сек (1536 SPF)
Битовая глубина : 16 бит
Метод сжатия : С потерями
Размер потока : 240 Мбайт (16%)
Выравнивание : Разделение по промежуткам
Продолжительность промежутка : 42 мс. (1,00 видеокадр)
Время предзагрузки промежутка : 500 мс.
ServiceKind/String : Complete Main

Скриншоты


Рип перезалит, замена звуковой дорожки на более качественную.

Если ваш рейтинг упадет ниже 0,3, вы не сможете скачивать торренты! Подробнее о рейтинге.

[cybertorrent.ru].t552.torrent 
Торрент: Зарегистрирован [ 2019-03-18 13:08 ] · 1C4AC3858A97E602818E891E8597CA62E30C5866

Скачать .torrent

Скачать

15 KB

Статус: проверено
Скачан: 0 раз
Размер: 1,46 GB
terms.php
[Профиль] [ЛС]
Показать сообщения:    
Ответить на тему

Текущее время: 25-Апр 19:55

Часовой пояс: UTC ± 0



Вы не можете начинать темы
Вы не можете отвечать на сообщения
Вы не можете редактировать свои сообщения
Вы не можете удалять свои сообщения
Вы не можете голосовать в опросах
Вы не можете прикреплять файлы к сообщениям
Вы можете скачивать файлы