Хождение по мукам / Сезон: 01 / Серии: 01-12 из 12 (Константин Худяков) [2017, Драма, WEBRip 1080p]

Ответить на тему
Статистика раздачи
Размер:  19,29 GB   |    Зарегистрирован:  5 месяцев 30 дней   |    Скачан:  0 раз

Полного источника не было: Никогда

   
 
Автор Сообщение

sss777sss ®

Пол: Не указан

Стаж: 6 месяцев 5 дней

Сообщений: 423

Создавать темы 18-Мар-2019 13:05

[Цитировать]

Хождение по мукам
Год выпуска: 2017
Производство: Всемирные Русские Студии
Жанр: Драма
Продолжительность: ~00:50:00
Субтитры: Русские
Режиссёр: Константин Худяков
В ролях: Юлия Снигирь, Анна Чиповская, Павел Трубинер, Леонид Бичевин, Антон Шагин, Андрей Мерзликин, Светлана Ходченкова, Алексей Колган, Александр Яценко, Евгений Стычкин.
Описание: Сериал рассказывает о судьбах русской интеллигенции накануне, во время и после революционных событий 1917 года. В центре сюжета — история жизни двух сестер Булавиных, Дарьи и Катерины, и их возлюбленных: офицера Вадима Рощина и инженера Балтийского завода Телегина. Вихри мировой войны, двух революций и Гражданской войны разносят четырех главных героев по разным уголкам страны. Их пути расходятся и не раз пересекаются вновь.
Доп. информация: Рип с сервиса Netflix
Реклама: Нет
Сэмпл: Тут
Качество: WEBRip 1080p
Формат: MKV
Видео кодек: H.264
Аудио кодек: eac3
Видео: AVC, 1920x1080, 25fps, 4020kbps, 0,078bit/pixel
Аудио: eac3, 48kHz, 2ch, 128kbps

MI

Общее
Уникальный идентификатор : 18062741363658810675519023030413172978 (0xD96C1E80BEA34972F9FF4330AF220F2)
Полное имя : C:\Users\Videos\The.Road.to.Calvary.S01.RUSSIAN.1080p.NF.WEBRip.DDP2.0.x264\The.Road.to.Calvary.S01E03.1080p.NF.WEB-DL.DD+2.0.H.264.mkv
Формат : Matroska
Версия формата : Version 4
Размер файла : 1,51 Гбайт
Продолжительность : 52 м. 18 с.
Режим общего битрейта : Переменный
Общий поток : 4143 Кбит/сек
Дата кодирования : UTC 2019-03-16 13:17:46
Программа кодирования : mkvmerge v32.0.0 ('Astral Progressions') 64-bit
Библиотека кодирования : libebml v1.3.7 + libmatroska v1.5.0
Видео
Идентификатор : 1
Формат : AVC
Формат/Информация : Advanced Video Codec
Профиль формата : Main@L4
Настройки формата : CABAC / 3 Ref Frames
Параметр CABAC формата : Да
Параметр RefFrames формата : 3 кадра
Идентификатор кодека : V_MPEG4/ISO/AVC
Продолжительность : 52 м. 18 с.
Вид битрейта : Переменный
Битрейт : 4020 Кбит/сек
Максимальный битрейт : 6030 Кбит/сек
Ширина : 1920 пикселей
Высота : 1080 пикселей
Соотношение сторон : 16:9
Режим частоты кадров : Постоянный
Частота кадров : 25,000 кадров/сек
Цветовое пространство : YUV
Субдискретизация насыщенности : 4:2:0
Битовая глубина : 8 бит
Тип развёртки : Прогрессивная
Бит/(Пиксели*Кадры) : 0.078
Размер потока : 1,47 Гбайт (97%)
Библиотека кодирования : x264 core 148 r2715 7e75228
Настройки программы : cabac=1 / ref=3 / deblock=1:0:0 / analyse=0x1:0x111 / me=umh / subme=10 / psy=1 / psy_rd=1.00:0.00 / mixed_ref=1 / me_range=24 / chroma_me=1 / trellis=2 / 8x8dct=0 / cqm=0 / deadzone=21,11 / fast_pskip=1 / chroma_qp_offset=-2 / threads=8 / lookahead_threads=1 / sliced_threads=0 / nr=0 / decimate=1 / interlaced=0 / bluray_compat=0 / stitchable=1 / constrained_intra=0 / bframes=2 / b_pyramid=0 / b_adapt=2 / b_bias=0 / direct=3 / weightb=1 / open_gop=0 / weightp=2 / keyint=50 / keyint_min=26 / scenecut=0 / intra_refresh=0 / rc_lookahead=50 / rc=2pass / mbtree=1 / bitrate=4020 / ratetol=1.0 / qcomp=0.50 / qpmin=6 / qpmax=51 / qpstep=4 / cplxblur=20.0 / qblur=0.5 / vbv_maxrate=6030 / vbv_bufsize=8040 / nal_hrd=vbr / filler=0 / ip_ratio=1.40 / aq=1:1.00
Язык : Russian
Default : Да
Forced : Нет
Аудио
Идентификатор : 2
Формат : E-AC-3
Формат/Информация : Enhanced AC-3
Коммерческое название : Dolby Digital Plus
Идентификатор кодека : A_EAC3
Продолжительность : 52 м. 18 с.
Вид битрейта : Постоянный
Битрейт : 128 Кбит/сек
Каналы : 2 канала
Channel layout : L R
Частота : 48,0 КГц
Частота кадров : 31,250 кадров/сек (1536 SPF)
Метод сжатия : С потерями
Размер потока : 47,9 Мбайт (3%)
Язык : Russian
ServiceKind/String : Complete Main
Default : Да
Forced : Нет
Текст
Идентификатор : 3
Формат : UTF-8
Идентификатор кодека : S_TEXT/UTF8
Идентификатор кодека/Информация : UTF-8 Plain Text
Продолжительность : 51 м. 33 с.
Битрейт : 88 бит/сек
ElementCount : 673
Размер потока : 33,4 Кбайт (0%)
Заголовок : Russian
Язык : Russian
Default : Нет
Forced : Нет

Скриншоты

Предыдущие и альтернативные раздачи
[cybertorrent.ru].t555.torrent 
Торрент: Зарегистрирован [ 2019-03-18 13:08 ] · E719CF1758031D810304C9C083709A548CD9FBB2

Скачать .torrent

Скачать

50 KB

Статус: проверено
Скачан: 0 раз
Размер: 19,29 GB
terms.php
[Профиль] [ЛС]
Показать сообщения:    
Ответить на тему

Текущее время: 17-Сен 18:55

Часовой пояс: UTC ± 0



Вы не можете начинать темы
Вы не можете отвечать на сообщения
Вы не можете редактировать свои сообщения
Вы не можете удалять свои сообщения
Вы не можете голосовать в опросах
Вы не можете прикреплять файлы к сообщениям
Вы можете скачивать файлы

Партнеры

Выражаем благодарность всем людям, внесшим вклад в наш сайт в далёком прошлом. Мы помним Вас, гордимся Вами и ждём Вас обратно!

Интересное в сети