Американские боги / American Gods / Сезон: 2 / Серии: 1 из 8 (Дэвид Слэйд, Крис Бирн, Адам Кэйн) [2019, США, Фэнтези, драма, детектив, WEB-DLRip] MVO (NewStudio) + Original + Sub (Rus, Eng)

Ответить на тему
Статистика раздачи
Размер:  732 MB   |    Зарегистрирован:  5 месяцев   |    Скачан:  0 раз

Полного источника не было: Никогда

   
 
Автор Сообщение

Рамфоринх ®

Пол: Не указан

Стаж: 5 месяцев 6 дней

Сообщений: 351

Создавать темы 18-Мар-2019 13:05

[Цитировать]

Американские боги / American Gods
Год выпуска: 2019
Страна: США
Жанр: Фэнтези, драма, детектив
Продолжительность: ~ 01:00:00
Перевод: Профессиональный (многоголосый закадровый) | NewStudio
Режиссёр: Дэвид Слэйд, Крис Бирн, Адам Кэйн
В ролях: Рики Уиттл, Эмили Браунинг, Криспин Гловер, Брюс Лэнгли, Йетиде Бадаки, Пабло Шрайбер, Иэн Макшейн, Орландо Джонс, Муса Крэйиш, Омид Абтахи, Демор Барнс
Описание: Экранизация фантастического бестселлера Нила Геймана. Бывший заключённый Тень Мун устраивается на работу к таинственному незнакомцу по имени Мистер Среда, который оказывается воплощением верховного скандинавского бога Одина. Кроме него в Америке скрывается ещё целое множество героев древних мифов и преданий. Старые Боги потеряли своё могущество, уступив место Новым Американским Богам, порождённым массовой культурой. Между двумя пантеонами – древнего и современного мира – назревает война за веру людей. Тень не рад возвращению из тюрьмы – его отпустили из-за смерти жены в результате несчастного случая. Он едет на похороны, не переставая думать о своей жизни и своём месте в этом мире, который приносит ему столько горестей. С трудом попав на рейс, он переживает в самолёте сильнейший шторм. В салоне он встречает Мистера Среду, который знает о нём больше, чем Тень мог себе представить.- -[box=#aed8ff,#003465]Ссылка на предыдущие и альтернативные раздачи[/box]-Качество: WEB-DLRip
Формат: AVI
Видео: XviD, 720x400 (16:9), 23,976 кадров/сек, ~1500 Кбит/сек
Аудио Rus: AC3, 48,0 kHz, 2 ch, 192 Кбит/сек | NewStudio
Аудио Eng: AC3, 48,0 kHz, 2 ch, 192 Кбит/сек
Субтитры: Русские (Forced, Full), английские (SDH)
Реклама: Отсутствует-

✘ Релиз ✘

Очистка от рекламы: karta
-

Список серий

01. Дом на скале / House on the Rock
02. Обольстительный человек / The Beguiling Man
03. Мунин / Muninn
04. Величайшая история из всех / The Greatest Story Ever Told
05. Пути мёртвых / The Ways of the Dead
06. Донар Великий / Donar the Great
07. Сокровище солнца / Treasure of the Sun
08. Лунная тень / Moon Shadow
-

MediaInfo

Общее
Полное имя : E:\American Gods (Season 2) WEB-DLRip NewStudio\American.Gods.S02E01.WEB-DLRip.RGzsRutracker.[Wentworth_Miller].avi
Формат : AVI
Формат/Информация : Audio Video Interleave
Размер файла : 732 Мбайт
Продолжительность : 53 м. 53 с.
Общий поток : 1898 Кбит/сек
Название фильма : American.Gods.S02E01.WEB-DLRip.RGzsRutracker.[Wentworth_Miller]
Режиссёр : Wentworth_Miller
Программа кодирования : VirtualDubMod 1.5.10.3 | www.virtualdub-fr.org || (build 2550/release)
Библиотека кодирования : VirtualDubMod build 2550/release
Формат оригинала/Имя : TV-Serie
Видео
Идентификатор : 0
Формат : MPEG-4 Visual
Профиль формата : Advanced Simple@L5
Настройки формата : BVOP2
Параметр BVOP формата : 2
Параметр QPel формата : Нет
Параметр GMC формата : Без точки перехода
Параметр матрицы формата : Default (MPEG)
Идентификатор кодека : XVID
Идентификатор кодека/Подсказка : XviD
Продолжительность : 53 м. 53 с.
Битрейт : 1500 Кбит/сек
Ширина : 720 пикселей
Высота : 400 пикселей
Соотношение сторон : 16:9
Частота кадров : 23,976 (24000/1001) кадра/сек
Цветовое пространство : YUV
Субдискретизация насыщенности : 4:2:0
Битовая глубина : 8 бит
Тип развёртки : Прогрессивная
Метод сжатия : С потерями
Бит/(Пиксели*Кадры) : 0.217
Размер потока : 578 Мбайт (79%)
Библиотека кодирования : XviD 73
Аудио #1
Идентификатор : 1
Формат : AC-3
Формат/Информация : Audio Coding 3
Коммерческое название : Dolby Digital
Идентификатор кодека : 2000
Продолжительность : 53 м. 53 с.
Вид битрейта : Постоянный
Битрейт : 192 Кбит/сек
Каналы : 2 канала
Channel layout : L R
Частота : 48,0 КГц
Частота кадров : 31,250 кадров/сек (1536 SPF)
Битовая глубина : 16 бит
Метод сжатия : С потерями
Размер потока : 74,0 Мбайт (10%)
Выравнивание : Разделение по промежуткам
Продолжительность промежутка : 42 мс. (1,00 видеокадр)
Время предзагрузки промежутка : 500 мс.
ServiceKind/String : Complete Main
Аудио #2
Идентификатор : 2
Формат : AC-3
Формат/Информация : Audio Coding 3
Коммерческое название : Dolby Digital
Идентификатор кодека : 2000
Продолжительность : 53 м. 53 с.
Вид битрейта : Постоянный
Битрейт : 192 Кбит/сек
Каналы : 2 канала
Channel layout : L R
Частота : 48,0 КГц
Частота кадров : 31,250 кадров/сек (1536 SPF)
Битовая глубина : 16 бит
Метод сжатия : С потерями
Размер потока : 74,0 Мбайт (10%)
Выравнивание : Разделение по промежуткам
Продолжительность промежутка : 42 мс. (1,00 видеокадр)
Время предзагрузки промежутка : 500 мс.
ServiceKind/String : Complete Main
-

Скриншоты

-

Внимание! Раздача ведётся путём добавления новых серий

Внимание! Раздача ведётся путём добавления новых серий; при каждом добавлении создаётся новый торрент. Чтобы начать докачку новой серии, пользователям необходимо сделать следующее:
(1) остановить скачивание,
(2) удалить старый торрент у себя из клиента (старые серии удалять не надо),
(3) скачать новый торрент и запустить его у себя в клиенте вместо старого, при этом указать клиенту путь в старую папку куда и должно происходить скачивание новых серий.
Ваш клиент при этом должен произвести хеширование (проверку) старой папки (если не производит сам - помогите ему сделать это), и будет докачивать только те серии которых у вас ещё нет. Старые серии при этом не удаляются, а продолжают раздаваться!
Eсли вы уже удалили старые серии, то предотвратить повторную закачку старых серий можно, отжав галочку в соответствующих местах при запуске нового торрента. По возможности, желательно не удалять старые серии как можно дольше чтобы релизёр не столько продолжал раздавать старые серии, а смог сконцентрироваться на новых.
[cybertorrent.ru].t561.torrent 
Торрент: Зарегистрирован [ 2019-03-18 13:08 ] · E2013474AFD75FEF3B20E0AD13119C392843E6DB

Скачать .torrent

Скачать

15 KB

Статус: проверено
Скачан: 0 раз
Размер: 732 MB
terms.php
[Профиль] [ЛС]
Показать сообщения:    
Ответить на тему

Текущее время: 19-Авг 03:52

Часовой пояс: UTC ± 0



Вы не можете начинать темы
Вы не можете отвечать на сообщения
Вы не можете редактировать свои сообщения
Вы не можете удалять свои сообщения
Вы не можете голосовать в опросах
Вы не можете прикреплять файлы к сообщениям
Вы можете скачивать файлы