Большие перегоны / Машинист (Анатолий Дудоров) [1971, киноповесть, DVB, AVC]

Ответить на тему
Статистика раздачи
Размер:  1,07 GB   |    Зарегистрирован:  6 месяцев   |    Скачан:  0 раз

Полного источника не было: Никогда

   
 
Автор Сообщение

edich ®

Пол: Не указан

Стаж: 6 месяцев 6 дней

Сообщений: 173

Создавать темы 18-Мар-2019 10:03

[Цитировать]

Большие перегоны / Машинист
31.01.2019 торрент обновлен, запись трансляции ТК "ТРО" заменена записью трансляции ТК "Ностальгия"
Жанр: киноповесть
Год выпуска: 1971
Продолжительность: 01:07:10
Режиссёр: Анатолий Дудоров
В ролях: Николай Крючков, Виктория Смоленская, Юрий Николаев, Николай Мерзликин, Николай Ерёменко старший, Глеб Стриженов, Леонид Чубаров, Георгий Георгиу, Григорий Михайлов, Виктор Задубровский, Алла Червонная, Игорь Петренко
Описание: Игорь Шилов, помощник машиниста электропоезда, вспоминает о своем пути в профессию. Не поступив в столичный институт, Игорь решает остаться в Минске, чтобы помогать матери. Герой устраивается кочегаром в поездную бригаду старого машиниста Касьяна Кузьмича, настоящего человека и чуткого старшего товарища...
Доп. информация: Запись потока *.ts со спутника EUTELSAT 36A/B, 36° в.д., удаление рекламы программой VideoReDo.
Качество видео: DVB
Формат видео: TS
Видео: Advanced Video Codec, 720x576 (4:3), 25,000 кадров/сек, 1 975 Кбит/сек
Аудио: MPEG Audio, 48,0 КГц, 192 Кбит/сек, 2 канала

MediaInfo

General
ID : 1 (0x1)
Complete name : D:\Torrent\БОЛЬШИЕ ПЕРЕГОНЫ (Ностальгия).ts
Format : MPEG-TS
File size : 1.07 GiB
Duration : 1 h 7 min
Overall bit rate mode : Variable
Overall bit rate : 2 282 kb/s
Video
ID : 217 (0xD9)
Menu ID : 1 (0x1)
Format : AVC
Format/Info : Advanced Video Codec
Format profile : High@L3
Format settings : CABAC / 4 Ref Frames
Format settings, CABAC : Yes
Format settings, ReFrames : 4 frames
Codec ID : 27
Duration : 1 h 7 min
Bit rate : 1 975 kb/s
Width : 720 pixels
Height : 576 pixels
Display aspect ratio : 4:3
Frame rate : 25.000 FPS
Standard : Component
Color space : YUV
Chroma subsampling : 4:2:0
Bit depth : 8 bits
Scan type : Interlaced
Scan type, store method : Separated fields
Scan order : Top Field First
Bits/(Pixel*Frame) : 0.190
Stream size : 949 MiB (87%)
Color range : Limited
Color primaries : BT.601 PAL
Transfer characteristics : BT.470 System B/G
Matrix coefficients : BT.470 System B/G
Audio
ID : 317 (0x13D)
Menu ID : 1 (0x1)
Format : MPEG Audio
Format version : Version 1
Format profile : Layer 2
Codec ID : 3
Duration : 1 h 7 min
Bit rate mode : Constant
Bit rate : 192 kb/s
Channel(s) : 2 channels
Sampling rate : 48.0 kHz
Frame rate : 41.667 FPS (1152 SPF)
Compression mode : Lossy
Stream size : 92.3 MiB (8%)
Language : Russian
[cybertorrent.ru].t59.torrent 
Торрент: Зарегистрирован [ 2019-03-18 10:04 ] · 21930E814CCDC87EC885C7FAF8D16F5576C84D0A

Скачать .torrent

Скачать

11 KB

Статус: проверено
Скачан: 0 раз
Размер: 1,07 GB
terms.php
[Профиль] [ЛС]
Показать сообщения:    
Ответить на тему

Текущее время: 19-Сен 04:50

Часовой пояс: UTC ± 0



Вы не можете начинать темы
Вы не можете отвечать на сообщения
Вы не можете редактировать свои сообщения
Вы не можете удалять свои сообщения
Вы не можете голосовать в опросах
Вы не можете прикреплять файлы к сообщениям
Вы можете скачивать файлы

Партнеры

Выражаем благодарность всем людям, внесшим вклад в наш сайт в далёком прошлом. Мы помним Вас, гордимся Вами и ждём Вас обратно!

Интересное в сети