Гуфи. Фильм / Каникулы Гуфи / Гуфи - звезда / A Goofy Movie (Кевин Лима / Kevin Lima) [1995, США, комедия, мелодрама, мюзикл, приключения, семейный, BDRip-AVC] DUB + MVO + 2xAVO (Санаев, Алексеев) + Sub (Rus, Eng)

Ответить на тему
Статистика раздачи
Размер:  2,59 GB   |    Зарегистрирован:  6 дней   |    Скачан:  0 раз

Полного источника не было: Никогда

   
 
Автор Сообщение

Esthyr ®

Пол: Мужской

Стаж: 1 месяц 4 дня

Сообщений: 3

Откуда: Dominican Republic

Создавать темы 08-Сен-2019 15:38

[Цитировать]

Гуфи. Фильм | Каникулы Гуфи | Гуфи - звезда
A Goofy Movie
«It's Goofy and Max...in their first full-length animated feature!»- Страна: США
Жанр: комедия, мелодрама, мюзикл, приключения, семейный
Год выпуска: 1995
Продолжительность: 01:17:40-Перевод 1: Професииональный (дублированный)
Перевод 2: Профессиональный (многоголосый закадровый)
Перевод 2: Авторский (одноголосый закадровый) Павел Санаев
Перевод 2: Авторский (одноголосый закадровый) Антон Алексеев
Оригинальная аудиодорожка: английская
Субтитры: русские, английские-Режиссер: Кевин Лима / Kevin Lima--Роли озвучивали: Билл Фармер, Джейсон Мэрсден, Джим Каммингс, Келли Мартин, Роб Полсен, Уоллес Шоун, Дженна Фон Ой, Фрэнк Уэлкер, Кевин Лима, Флоренс Стэнли-Описание:Эта история о Гуфи и его сыне Максе! Макс учится в школе и не хочет остаться неудачником в памяти своих одноклассников, а ещё больше он не хочет упустить возможность пойти на последнюю вечеринку года с девушкой, которая ему нравится — Роксаной. Ради этого он пренебрегает правилами и устраивает грандиозное шоу при помощи своего друга Пи-Джея. Результат получался смешанным, — с одной стороны у Макса наладились отношения с Роксаной, а с другой — его отец Гуфи получает предупреждение от директора, вследствие чего ему приходится забрать сына с собой в долгое путешествие по стране. Отправившись на рыбалку, они находят не очень приятные приключения на свои головы. Поймёт ли Макс, что нет ничего плохого в том, чтобы быть похожим на своего отца, даже если он немного чокнутый? Ответ будет дан в неожиданном финале, во время которого Гуфи и Макс буквально "взорвут зал" на безудержном рок-концерте!-Релиз от: -
IMDb: 6.80 (41 439)-Благодарности:
RoxMarty - исходник звука А.Алексеева
sk1987 - русские и английские субтитры
MagisterYODA - звук П.Санаева взят Отсюда
otshik - дубляж взят Отсюда
SelinaAnt - звук многоголоска взят Отсюда
*Sergeant_am* - синхронизация-Сэмпл
Тип релиза: BDRip-AVC | BDRemux 1080p
Контейнер: MKV-Видео: AVC 3 772 kb/s 1088 x 588 (1.850) 23.976 fps
Аудио 1: 48 kHz, AC3 Dolby Digital, 2/0 (L,R) ch, ~192.00 kbps avg (DUB)
Аудио 2: 48 kHz, AC3 Dolby Digital, 2/0 (L,R) ch, ~192.00 kbps avg (MVO)
Аудио 3: 48 kHz, AC3 Dolby Digital, 2/0 (L,R) ch, ~192.00 kbps avg (Санаев)
Аудио 4: 48 kHz, AC3 Dolby Digital, 2/0 (L,R) ch, ~192.00 kbps avg (Алексеев)
Аудио 5: 48 kHz, AC3 Dolby Digital, 2/0 (L,R) ch, ~224.00 kbps avg (Eng)
Формат субтитров: softsub (SRT)

MediaInfo | Log

Log

x264 [info]: frame I:1007 Avg QP:17.22 size: 94255
x264 [info]: frame P:29180 Avg QP:18.96 size: 36715
x264 [info]: frame B:81557 Avg QP:20.37 size: 12642
x264 [info]: consecutive B-frames: 3.2% 3.1% 12.1% 50.4% 18.0% 8.6% 2.1% 1.4% 0.4% 0.3% 0.4%
x264 [info]: mb I I16..4: 4.3% 76.2% 19.5%
x264 [info]: mb P I16..4: 0.2% 12.6% 1.8% P16..4: 29.2% 34.5% 14.2% 2.1% 0.2% skip: 5.1%
x264 [info]: mb B I16..4: 0.0% 0.9% 0.2% B16..8: 35.9% 19.5% 4.2% direct: 6.5% skip:32.8% L0:50.3% L1:40.9% BI: 8.8%
x264 [info]: 8x8 transform intra:83.7% inter:54.2%
x264 [info]: direct mvs spatial:100.0% temporal:0.0%
x264 [info]: coded y,uvDC,uvAC intra: 95.0% 84.0% 64.3% inter: 31.9% 27.7% 4.8%
x264 [info]: i16 v,h,dc,p: 36% 25% 12% 27%
x264 [info]: i8 v,h,dc,ddl,ddr,vr,hd,vl,hu: 7% 7% 14% 11% 13% 12% 12% 11% 13%
x264 [info]: i4 v,h,dc,ddl,ddr,vr,hd,vl,hu: 10% 8% 3% 11% 16% 14% 14% 11% 13%
x264 [info]: i8c dc,h,v,p: 39% 31% 19% 11%
x264 [info]: Weighted P-Frames: Y:12.4% UV:4.0%
x264 [info]: ref P L0: 35.4% 10.2% 16.9% 8.0% 7.1% 5.3% 5.3% 3.4% 3.1% 2.5% 2.6% 0.4% 0.0%
x264 [info]: ref B L0: 64.6% 12.1% 6.7% 4.2% 3.1% 2.9% 2.3% 2.0% 1.2% 0.8%
x264 [info]: ref B L1: 95.6% 4.4%
x264 [info]: kb/s:3771.64
x264 [total]: encoded 111744 frames, 11.73 fps, 3771.64 kb/s
Format : Matroska
Format version : Version 4
File size : 2.59 GiB
Duration : 1 h 17 min
Overall bit rate : 4 767 kb/s
Movie name : A Goofy Movie (1995) [rutracker.org)
Encoded date : UTC 2019-09-06 06:04:17
Writing application : mkvmerge v34.0.0 ('Sight and Seen') 64-bit
Writing library : libebml v1.3.7 + libmatroska v1.5.0
Cover : Yes
Attachments : cover.jpg
Video
ID : 1
Format : AVC
Format/Info : Advanced Video Codec
Format profile : High@L4.1
Format settings : CABAC / 11 Ref Frames
Format settings, CABAC : Yes
Format settings, Reference frames : 11 frames
Codec ID : V_MPEG4/ISO/AVC
Duration : 1 h 17 min
Bit rate : 3 772 kb/s
Width : 1 088 pixels
Height : 588 pixels
Display aspect ratio : 1.85:1
Frame rate mode : Constant
Frame rate : 23.976 (24000/1001) FPS
Color space : YUV
Chroma subsampling : 4:2:0
Bit depth : 8 bits
Scan type : Progressive
Bits/(Pixel*Frame) : 0.246
Stream size : 2.05 GiB (79%)
Title : A Goofy Movie (1995) [rutracker.org)
Writing library : x264 core 157 r2969 d4099dd
Encoding settings : cabac=1 / ref=11 / deblock=1:-3:-2 / analyse=0x3:0x133 / me=umh / subme=11 / psy=1 / psy_rd=1.00:0.05 / mixed_ref=1 / me_range=48 / chroma_me=1 / trellis=2 / 8x8dct=1 / cqm=0 / deadzone=21,11 / fast_pskip=0 / chroma_qp_offset=-3 / threads=12 / lookahead_threads=3 / sliced_threads=0 / nr=0 / decimate=1 / interlaced=0 / bluray_compat=0 / constrained_intra=0 / bframes=10 / b_pyramid=2 / b_adapt=2 / b_bias=0 / direct=3 / weightb=1 / open_gop=0 / weightp=2 / keyint=250 / keyint_min=23 / scenecut=40 / intra_refresh=0 / rc_lookahead=60 / rc=crf / mbtree=0 / crf=18.4 / qcomp=0.60 / qpmin=0 / qpmax=69 / qpstep=4 / vbv_maxrate=50000 / vbv_bufsize=62500 / crf_max=0.0 / nal_hrd=none / filler=0 / ip_ratio=1.40 / pb_ratio=1.30 / aq=3:0.90
Language : English
Default : Yes
Forced : No
Audio #1
ID : 2
Format : AC-3
Format/Info : Audio Coding 3
Commercial name : Dolby Digital
Codec ID : A_AC3
Duration : 1 h 17 min
Bit rate mode : Constant
Bit rate : 192 kb/s
Channel(s) : 2 channels
Channel layout : L R
Sampling rate : 48.0 kHz
Frame rate : 31.250 FPS (1536 SPF)
Bit depth : 16 bits
Compression mode : Lossy
Stream size : 107 MiB (4%)
Title : Профессиональный (дублированный)
Language : Russian
Service kind : Complete Main
Default : Yes
Forced : No
Audio #2
ID : 3
Format : AC-3
Format/Info : Audio Coding 3
Commercial name : Dolby Digital
Codec ID : A_AC3
Duration : 1 h 17 min
Bit rate mode : Constant
Bit rate : 192 kb/s
Channel(s) : 2 channels
Channel layout : L R
Sampling rate : 48.0 kHz
Frame rate : 31.250 FPS (1536 SPF)
Bit depth : 16 bits
Compression mode : Lossy
Stream size : 107 MiB (4%)
Title : Профессиональный (многоголосый закадровый)
Language : Russian
Service kind : Complete Main
Default : No
Forced : No
Audio #3
ID : 4
Format : AC-3
Format/Info : Audio Coding 3
Commercial name : Dolby Digital
Codec ID : A_AC3
Duration : 1 h 17 min
Bit rate mode : Constant
Bit rate : 192 kb/s
Channel(s) : 2 channels
Channel layout : L R
Sampling rate : 48.0 kHz
Frame rate : 31.250 FPS (1536 SPF)
Bit depth : 16 bits
Compression mode : Lossy
Stream size : 107 MiB (4%)
Title : Авторский (Одноголосый закадровый) Павел Санаев
Language : Russian
Service kind : Complete Main
Default : No
Forced : No
Audio #4
ID : 5
Format : AC-3
Format/Info : Audio Coding 3
Commercial name : Dolby Digital
Codec ID : A_AC3
Duration : 1 h 17 min
Bit rate mode : Constant
Bit rate : 192 kb/s
Channel(s) : 2 channels
Channel layout : L R
Sampling rate : 48.0 kHz
Frame rate : 31.250 FPS (1536 SPF)
Bit depth : 16 bits
Compression mode : Lossy
Stream size : 107 MiB (4%)
Title : Авторский (Одноголосый закадровый) Антон Алексеев
Language : Russian
Service kind : Complete Main
Default : No
Forced : No
Audio #5
ID : 6
Format : AC-3
Format/Info : Audio Coding 3
Commercial name : Dolby Digital
Codec ID : A_AC3
Duration : 1 h 17 min
Bit rate mode : Constant
Bit rate : 224 kb/s
Channel(s) : 2 channels
Channel layout : L R
Sampling rate : 48.0 kHz
Frame rate : 31.250 FPS (1536 SPF)
Bit depth : 16 bits
Compression mode : Lossy
Stream size : 124 MiB (5%)
Title : Orginal
Language : English
Service kind : Complete Main
Default : No
Forced : No
Text #1
ID : 7
Format : UTF-8
Codec ID : S_TEXT/UTF8
Codec ID/Info : UTF-8 Plain Text
Duration : 1 h 11 min
Bit rate : 81 b/s
Count of elements : 939
Stream size : 43.2 KiB (0%)
Title : Full
Language : Russian
Default : No
Forced : No
Text #2
ID : 8
Format : UTF-8
Codec ID : S_TEXT/UTF8
Codec ID/Info : UTF-8 Plain Text
Duration : 1 h 17 min
Bit rate : 70 b/s
Count of elements : 1328
Stream size : 39.6 KiB (0%)
Title : Full
Language : English
Default : No
Forced : No
Menu
00:00:00.000 : en:Chapter 01
00:03:35.215 : en:Chapter 02
00:06:19.128 : en:Chapter 03
00:12:45.306 : en:Chapter 04
00:18:50.462 : en:Chapter 05
00:22:23.800 : en:Chapter 06
00:26:46.396 : en:Chapter 07
00:30:43.758 : en:Chapter 08
00:40:07.738 : en:Chapter 09
00:44:16.987 : en:Chapter 10
00:46:31.997 : en:Chapter 11
00:49:05.943 : en:Chapter 12
00:53:57.651 : en:Chapter 13
00:57:03.420 : en:Chapter 14
00:58:57.200 : en:Chapter 15
01:01:25.807 : en:Chapter 16
01:03:55.832 : en:Chapter 17
01:07:05.187 : en:Chapter 18
01:10:13.125 : en:Chapter 19
01:12:55.537 : en:Chapter 20

Скриншоты



[cybertorrent.ru].t6093.torrent 
Торрент: Зарегистрирован [ 2019-09-08 15:38 ] · 70A09FF6C67865F8C6A3AFAF9912A88A88AC73C7

Скачать .torrent

Скачать

13 KB

Статус: проверено
Скачан: 0 раз
Размер: 2,59 GB
terms.php
[Профиль] [ЛС]
Показать сообщения:    
Ответить на тему

Текущее время: 15-Сен 10:09

Часовой пояс: UTC ± 0



Вы не можете начинать темы
Вы не можете отвечать на сообщения
Вы не можете редактировать свои сообщения
Вы не можете удалять свои сообщения
Вы не можете голосовать в опросах
Вы не можете прикреплять файлы к сообщениям
Вы можете скачивать файлы

Партнеры

Выражаем благодарность всем людям, внесшим вклад в наш сайт в далёком прошлом. Мы помним Вас, гордимся Вами и ждём Вас обратно!

Интересное в сети