Поздравляем! У Вас – мальчик! / Congratulations, It's a Boy! (Уильям А. Грэм / William A. Graham) [1971, США, Комедия, DVDRip] MVO

Ответить на тему
Статистика раздачи
Размер:  752 MB   |    Зарегистрирован:  5 дней   |    Скачан:  0 раз

Полного источника не было: Никогда

   
 
Автор Сообщение

Sylviya ®

Пол: Мужской

Стаж: 29 дней

Сообщений: 23

Откуда: Cambodia

Создавать темы 09-Сен-2019 16:00

[Цитировать]

Поздравляем! У Вас – мальчик! / Congratulations, It's a Boy!
Страна: США
Жанр: Комедия
Год выпуска: 1971
Продолжительность: 01:13:34
Перевод: Профессиональный (многоголосый закадровый)
Фильм озвучивали актеры: Людмила Ильина, Лариса Сёмушкина, Виктор Ткаченко, Андрей Хлебников. Русский текст Анастасии Христофоровой. Фильм озвучен ТПО "Кабельное телевидение", 1992 г.
Субтитры: нет
Режиссер: Уильям А. Грэм / William A. Graham
В ролях: Билл Биксби, Дайан Бэйкер, Карен Дженсен, Джек Альбертсон, Энн Сотерн, Даррел Ларсон, Джефф Доннел, Роберт Х. Харрис, Том Босли, Джуди Стрэнджис
Описание: Холостяцкая жизнь прерывается с появлением подростка, претендующего на роль сына.
Доп. информация: Дорожка с MVO синхронизирована и наложена ale_x2008 при помощи Adobe Audition, Sony Vegas и VirtualDubMod.
За русскую звуковую дорожку благодарим - SUPERDVD01

Релиз
Сэмпл: https://yadi.sk/i/M2PJ2JI3sGX4b
Качество видео: DVDRip
Формат видео: AVI
Видео: XviD build 73, 640x480 (1.33:1), 23.976 fps, 1227 kbps avg, 0.17 bit/pixel
Аудио: AC3 Dolby Digital, 48000Hz, 2/0 (L,R) ch (mono), 192.00 kbps avg

MediaInfo

Поздравляем! У Вас – мальчик! - Congratulations, It's a Boy! [by ale_x2008].avi
Format : AVI
Format/Info : Audio Video Interleave
File size : 752 MiB
Duration : 1h 13mn
Overall bit rate : 1 429 Kbps
Movie name : Поздравляем! У Вас – мальчик! - Congratulations, It's a Boy! [by ale_x2008]
Director : by ale_x2008
Writing application : VirtualDubMod 1.5.10.3 (build 2550/release)
Copyright : Edich2
Comment : RuTracker.org
Video
ID : 0
Format : MPEG-4 Visual
Format profile : Advanced Simple@L5
Format settings, BVOP : 2
Format settings, QPel : No
Format settings, GMC : No warppoints
Format settings, Matrix : Custom
Codec ID : XVID
Codec ID/Hint : XviD
Duration : 1h 13mn
Bit rate : 1 228 Kbps
Width : 640 pixels
Height : 480 pixels
Display aspect ratio : 4:3
Frame rate : 23.976 (23976/1000) fps
Color space : YUV
Chroma subsampling : 4:2:0
Bit depth : 8 bits
Scan type : Progressive
Compression mode : Lossy
Bits/(Pixel*Frame) : 0.167
Stream size : 646 MiB (86%)
Writing library : XviD 73
Audio
ID : 1
Format : AC-3
Format/Info : Audio Coding 3
Mode extension : CM (complete main)
Format settings, Endianness : Big
Codec ID : 2000
Duration : 1h 13mn
Bit rate mode : Constant
Bit rate : 192 Kbps
Channel(s) : 2 channels
Channel positions : Front: L R
Sampling rate : 48.0 KHz
Frame rate : 31.250 fps (1536 spf)
Compression mode : Lossy
Stream size : 101 MiB (13%)
Alignment : Split accross interleaves
Interleave, duration : 42 ms (1.00 video frame)
Interleave, preload duratio : 500 ms

Скриншоты


[cybertorrent.ru].t6128.torrent 
Торрент: Зарегистрирован [ 2019-09-09 16:00 ] · 63AB966F4A37D94B71F4D1ED0D931A9943797E03

Скачать .torrent

Скачать

15 KB

Статус: проверено
Скачан: 0 раз
Размер: 752 MB
terms.php
[Профиль] [ЛС]
Показать сообщения:    
Ответить на тему

Текущее время: 15-Сен 09:40

Часовой пояс: UTC ± 0



Вы не можете начинать темы
Вы не можете отвечать на сообщения
Вы не можете редактировать свои сообщения
Вы не можете удалять свои сообщения
Вы не можете голосовать в опросах
Вы не можете прикреплять файлы к сообщениям
Вы можете скачивать файлы

Партнеры

Выражаем благодарность всем людям, внесшим вклад в наш сайт в далёком прошлом. Мы помним Вас, гордимся Вами и ждём Вас обратно!

Интересное в сети