Майя МС / Майянцы / Mayans M.C. / Сезон: 2 / Серии: 1 из ? (Норберто Барба, Гай Ферленд, Курт Саттер) [2019, США, Триллер, драма, криминал, WEB-DLRip] MVO (LostFilm) + Original

Ответить на тему
Статистика раздачи
Размер:  771 MB   |    Зарегистрирован:  5 дней   |    Скачан:  0 раз

Полного источника не было: Никогда

   
 
Автор Сообщение

Kennet ®

Пол: Мужской

Стаж: 1 месяц 16 дней

Сообщений: 16

Откуда: Россия

Создавать темы 09-Сен-2019 16:00

[Цитировать]

Майя МС / Майянцы / Mayans M.C.- Год выпуска: 2019
Страна: США
Жанр: Триллер, драма, криминал
Продолжительность: 00:53:55-Перевод: Профессиональный (многоголосый закадровый) - LostFilm-Режиссёр: Норберто Барба, Гай Ферленд, Курт Саттер-В ролях: Дж.Д. Пардо, Клэйтон Карденас, Эдвард Джеймс Олмос, Сара Болгер, Майкл Ирби, Карла Баратта, Антонио Харамильо, Рауль Трухильо, Ричард Кебрал, Дэниэл Пино и др.-Описание: Спин-офф «Сынов анархии» повествует о байкерском клубе «Майянцы», ведущем дела на границе Мексики и Калифорнии. Главный герой истории — Эзекиэль «Эз» Рейес, после отсидки вернувшийся на малую родину. Парень вынужден приспосабливаться к своему новому статусу человека вне закона в родном городе, где у него когда-то были все шансы на исполнение заветной американской мечты.- -- -работа со звуком: itunestv@eniahd-Качество: WEB-DLRip
Формат: AVI
Видео: 720x400 (16:9), 23.976 fps, XviD, 1600 Kbps
Аудио 1: AC3, 48.0 KHz, 2 ch, 192 kbps [Rus]
Аудио 2: AC3, 48.0 KHz, 2 ch, 192 kbps [Eng]
Субтитры: Отсутствуют-Реклама:
[box]Отсутствует[/box]-Предыдущие и альтернативные раздачи-

Список серий

01. Воин-близнец / Xbalanque

MediaInfo

General
Complete name : Downloads\Mayans.M.C.S02.LostFilm\Mayans.M.C.S02E01.WEB-DL.Rus.Eng.RGzsRutracker.avi
Format : AVI
Format/Info : Audio Video Interleave
File size : 771 MiB
Duration : 53mn 55s
Overall bit rate : 1 998 Kbps
Writing application : VirtualDubMod 1.5.10.2 (build 2540/release)
Video #0
ID : 0
Format : MPEG-4 Visual
Format profile : Advanced Simple@L5
Format settings, BVOP : 1
Format settings, QPel : No
Format settings, GMC : No warppoints
Format settings, Matrix : Default (MPEG)
Codec ID : XVID
Codec ID/Hint : XviD
Duration : 53mn 55s
Bit rate : 1 600 Kbps
Width : 720 pixels
Height : 400 pixels
Display aspect ratio : 16:9
Frame rate : 23.976 fps
Color space : YUV
Chroma subsampling : 4:2:0
Bit depth : 8 bits
Scan type : Progressive
Compression mode : Lossy
Bits/(Pixel*Frame) : 0.232
Stream size : 617 MiB (80%)
Writing library : XviD 67
Audio #1
ID : 1
Format : AC-3
Format/Info : Audio Coding 3
Mode extension : CM (complete main)
Format settings, Endianness : Big
Codec ID : 2000
Duration : 53mn 55s
Bit rate mode : Constant
Bit rate : 192 Kbps
Channel(s) : 2 channels
Channel positions : Front: L R
Sampling rate : 48.0 KHz
Bit depth : 16 bits
Compression mode : Lossy
Stream size : 74.1 MiB (10%)
Alignment : Split accross interleaves
Interleave, duration : 42 ms (1.00 video frame)
Interleave, preload duration : 500 ms
Audio #2
ID : 2
Format : AC-3
Format/Info : Audio Coding 3
Mode extension : CM (complete main)
Format settings, Endianness : Big
Codec ID : 2000
Duration : 53mn 55s
Bit rate mode : Constant
Bit rate : 192 Kbps
Channel(s) : 2 channels
Channel positions : Front: L R
Sampling rate : 48.0 KHz
Bit depth : 16 bits
Compression mode : Lossy
Stream size : 74.1 MiB (10%)
Alignment : Split accross interleaves
Interleave, duration : 42 ms (1.00 video frame)
Interleave, preload duration : 500 ms

Скриншоты

Внимание! Раздача ведётся путём добавления новых серий:

(1) остановить скачивание,
(2) удалить старый торрент у себя из клиента (старые серии удалять не надо),
(3) скачать новый торрент и запустить его у себя в клиенте вместо старого, при этом указать клиенту путь в старую папку куда и должно происходить скачивание новых серий.
Ваш клиент при этом должен произвести хеширование (проверку) старой папки (если не производит сам - помогите ему сделать это), и будет докачивать только те серии которых у вас ещё нет. Старые серии при этом не удаляются, а продолжают раздаваться!
Eсли вы уже удалили старые серии, то предотвратить повторную закачку старых серий можно, отжав галочку в соответсвующих местах при запуске нового торрента. По возможности, желательно не удалять старые серии как можно дольше чтобы релизёр не столько продолжал раздавать старые серии, а смог сконцентрироваться на новых
.
Релиз группы:
[cybertorrent.ru].t6129.torrent 
Торрент: Зарегистрирован [ 2019-09-09 16:00 ] · E95FD062C56226459FB041522253F75B6A5EEB43

Скачать .torrent

Скачать

16 KB

Статус: проверено
Скачан: 0 раз
Размер: 771 MB
terms.php
[Профиль] [ЛС]
Показать сообщения:    
Ответить на тему

Текущее время: 15-Сен 09:37

Часовой пояс: UTC ± 0



Вы не можете начинать темы
Вы не можете отвечать на сообщения
Вы не можете редактировать свои сообщения
Вы не можете удалять свои сообщения
Вы не можете голосовать в опросах
Вы не можете прикреплять файлы к сообщениям
Вы можете скачивать файлы

Партнеры

Выражаем благодарность всем людям, внесшим вклад в наш сайт в далёком прошлом. Мы помним Вас, гордимся Вами и ждём Вас обратно!

Интересное в сети