Пляжный бездельник / The Beach Bum (Хармони Корин / Harmony Korine) [2019, США, Великобритания, комедия, WEB-DLRip] [Локализованный видеряд] AVO (Пучков)

Ответить на тему
Статистика раздачи
Размер:  1,46 GB   |    Зарегистрирован:  5 дней   |    Скачан:  0 раз

Полного источника не было: Никогда

   
 
Автор Сообщение

Peter ®

Пол: Мужской

Стаж: 28 дней

Сообщений: 44

Создавать темы 09-Сен-2019 15:59

[Цитировать]

Пляжный бездельник / The Beach Bum
Страна: США, Великобритания
Жанр: комедия
Год выпуска: 2019
Продолжительность: 01:30:34
Перевод: Авторский (одноголосый закадровый) Д.Пучков aka Goblin / Гоблин
Субтитры: нет
Оригинальная аудиодорожка: нет
Режиссер: Хармони Корин / Harmony Korine
В ролях: Мэттью МакКонахи, Снуп Догг, Айла Фишер, Мартин Лоуренс, Зак Эфрон, Джона Хилл, Стефания Оуэн, Донован Сент Ви Уильямс, Клинтон Арчамбо, Джерри Асчьоне, Джимми Баффетт
Описание: Отвязный тусовщик по кличке Лунный пёс плевать хотел на все общественные нормы. Все, что ему нужно, — это бабки на бухло и пляжные вечеринки. Но если он не допишет поэму, не получит наследства покойной жены. И стоит ли из-за этого париться?
Доп. информация: Локализованный видеоряд. Звуковая дорожка скачана из сети
В фильме присутствует ЗАПИКАННАЯ ненормативная лексика
Сэмпл: http://multi-up.com/1240736
Качество: WEB-DLRip Исходник
Формат: AVI
Видео: XviD / 2112 kbps / 720x304 / 25.000 fps
Аудио: AVO Пучков aka Goblin (Rus) / AC3 / 2 ch / 192 kbps / 48 kHz
Субтитры: отсутствуют

MediaInfo

General
Complete name : I:\rutracker\Пляжный бездельник (2019) WEB-DLRip [Локализованный видеоряд].avi
Format : AVI
Format/Info : Audio Video Interleave
File size : 1.46 GiB
Duration : 1 h 30 min
Overall bit rate : 2 314 kb/s
Writing application : VirtualDubMod 1.5.10.3 | www.virtualdub-fr.org || (build 2550/release)
Writing library : VirtualDubMod build 2550/release
Video
ID : 0
Format : MPEG-4 Visual
Format profile : Advanced Simple@L5
Format settings : BVOP2
Format settings, BVOP : 2
Format settings, QPel : No
Format settings, GMC : No warppoints
Format settings, Matrix : Default (H.263)
Codec ID : XVID
Codec ID/Hint : XviD
Duration : 1 h 30 min
Bit rate : 2 112 kb/s
Width : 720 pixels
Height : 304 pixels
Display aspect ratio : 2.35:1
Frame rate : 25.000 FPS
Color space : YUV
Chroma subsampling : 4:2:0
Bit depth : 8 bits
Scan type : Progressive
Compression mode : Lossy
Bits/(Pixel*Frame) : 0.386
Stream size : 1.34 GiB (91%)
Writing library : XviD 1.2.1 (UTC 2008-12-04)
Audio
ID : 1
Format : AC-3
Format/Info : Audio Coding 3
Commercial name : Dolby Digital
Codec ID : 2000
Duration : 1 h 30 min
Bit rate mode : Constant
Bit rate : 192 kb/s
Channel(s) : 2 channels
Channel layout : L R
Sampling rate : 48.0 kHz
Frame rate : 31.250 FPS (1536 SPF)
Bit depth : 16 bits
Compression mode : Lossy
Stream size : 124 MiB (8%)
Alignment : Split accross interleaves
Interleave, duration : 40 ms (1.00 video frame)
Interleave, preload duratio : 500 ms
Service kind : Complete Main

Скриншот c названием фильма

Скриншоты

[cybertorrent.ru].t6130.torrent 
Торрент: Зарегистрирован [ 2019-09-09 16:00 ] · D1FFEBFED61A79865BE97809CCB25830D2DD6C22

Скачать .torrent

Скачать

15 KB

Статус: проверено
Скачан: 0 раз
Размер: 1,46 GB
terms.php
[Профиль] [ЛС]
Показать сообщения:    
Ответить на тему

Текущее время: 15-Сен 09:38

Часовой пояс: UTC ± 0



Вы не можете начинать темы
Вы не можете отвечать на сообщения
Вы не можете редактировать свои сообщения
Вы не можете удалять свои сообщения
Вы не можете голосовать в опросах
Вы не можете прикреплять файлы к сообщениям
Вы можете скачивать файлы

Партнеры

Выражаем благодарность всем людям, внесшим вклад в наш сайт в далёком прошлом. Мы помним Вас, гордимся Вами и ждём Вас обратно!

Интересное в сети