Испытание верности (Иван Пырьев) [1954, драма, DVB]

Ответить на тему
Статистика раздачи
Размер:  3,97 GB   |    Зарегистрирован:  5 месяцев   |    Скачан:  0 раз

Полного источника не было: Никогда

   
 
Автор Сообщение

edich ®

Пол: Не указан

Стаж: 5 месяцев 6 дней

Сообщений: 157

Создавать темы 18-Мар-2019 10:03

[Цитировать]

Испытание верности
26.01.19 торрент обновлен, запись трансляции ТК "Дом Кино" заменена записью трансляции ТК "Культура", преимущество на сравнениях, продолжительность на 8 сек больше, битрейт 4700 против 3070
Жанр: драма
Год выпуска: 1954
Продолжительность: 01:50:48
Режиссёр: Иван Пырьев
В ролях: Сергей Ромоданов, Марина Ладынина, Леонид Галлис, Василий Топорков, Нина Гребешкова, Александр Михайлов (II), Станислав Чекан, Олег Голубицкий, Зинаида Руднева, Николай Тимофеев, Юрий Медведев
Описание: Кинодрама о непростых человеческих судьбах, о любви и разлуке, измене и преданности, об умении простить ошибку и не бросить близкого человека в беде...
Доп. информация: запись потока *.ts со спутника Экспресс АМ7, 40° в.д., ремукс в *.mkv программой VideoReDo.
Постер из коллекции советских киноплакатов коллеги tokarevamarina
Качество видео: DVB
Формат видео: MKV
Видео: MPEG Video, 720(1024)x576 (16:9), 25,000 кадров/сек, 4769 Кбит/сек
Аудио: MPEG Audio, 48,0 КГц, 256 Кбит/сек, 2 канала

MediaInfo

General
Unique ID : 47574090207826029534403425205902700278 (0x23CA6FBDDCD287E1F48FEBEF4FFCEEF6)
Complete name : U:\ИСПЫТАНИЕ ВЕРНОСТИ 16Х9 (Kultura 40).mkv
Format : Matroska
Format version : Version 2
File size : 3.97 GiB
Duration : 1 h 50 min
Overall bit rate mode : Variable
Overall bit rate : 5 127 kb/s
Writing application : Lavf52.64.2
Writing library : Lavf52.64.2
Video
ID : 1
Format : MPEG Video
Format version : Version 2
Format profile : Main@Main
Format settings : CustomMatrix / BVOP
Format settings, BVOP : Yes
Format settings, Matrix : Custom
Format settings, GOP : M=3, N=15
Format settings, picture st : Frame
Codec ID : V_MPEG2
Codec ID/Info : MPEG 1 or 2 Video
Duration : 1 h 50 min
Bit rate mode : Variable
Bit rate : 4 769 kb/s
Maximum bit rate : 15.0 Mb/s
Width : 720 pixels
Height : 576 pixels
Display aspect ratio : 16:9
Original display aspect rat : 16:9
Frame rate mode : Constant
Frame rate : 25.000 FPS
Standard : PAL
Color space : YUV
Chroma subsampling : 4:2:0
Bit depth : 8 bits
Scan type : Interlaced
Scan order : Top Field First
Compression mode : Lossy
Bits/(Pixel*Frame) : 0.460
Stream size : 3.69 GiB (93%)
Default : Yes
Forced : No
Audio
ID : 2
Format : MPEG Audio
Format version : Version 1
Format profile : Layer 2
Codec ID : A_MPEG/L2
Codec ID/Hint : MP2
Duration : 1 h 50 min
Bit rate mode : Constant
Bit rate : 256 kb/s
Channel(s) : 2 channels
Sampling rate : 48.0 kHz
Compression mode : Lossy
Delay relative to video : 17 ms
Stream size : 203 MiB (5%)
Language : English
Default : Yes
Forced : No

Ещё постеры

[cybertorrent.ru].t70.torrent 
Торрент: Зарегистрирован [ 2019-03-18 10:04 ] · 8FB821A44D5D89501F3487C04B629716DEE7ABA9

Скачать .torrent

Скачать

20 KB

Статус: проверено
Скачан: 0 раз
Размер: 3,97 GB
terms.php
[Профиль] [ЛС]
Показать сообщения:    
Ответить на тему

Текущее время: 18-Авг 23:58

Часовой пояс: UTC ± 0



Вы не можете начинать темы
Вы не можете отвечать на сообщения
Вы не можете редактировать свои сообщения
Вы не можете удалять свои сообщения
Вы не можете голосовать в опросах
Вы не можете прикреплять файлы к сообщениям
Вы можете скачивать файлы