Ужас на шоссе 91 / Ужас на 91-й автостраде / Terror on Highway 91 (Джерри Джеймсон / Jerry Jameson) [1989, США, Драма, SATRip] MVO + VO

Ответить на тему
Статистика раздачи
Размер:  1,49 GB   |    Зарегистрирован:  2 месяца 7 дней   |    Скачан:  0 раз

Полного источника не было: Никогда

   
 
Автор Сообщение

serzh ®

Пол: Не указан

Стаж: 2 месяца 13 дней

Сообщений: 184

Создавать темы 18-Мар-2019 10:03

[Цитировать]

Ужас на шоссе 91 / Ужас на 91-й автостраде / Terror on Highway 91
Страна: США
Жанр: Драма
Год выпуска: 1989
Продолжительность: 01:29:39
Перевод: Профессиональный (многоголосый закадровый)
Перевод 2: Одноголосый, закадровый (не опознан)
Субтитры: нет
Режиссер: Джерри Джеймсон / Jerry Jameson
В ролях: С. К. Бибби, Лара Флинн Бойл, Ричард Брукс, Майкл Берджесс, Брэд Дуриф
Описание: Заместитель шефа полиции небольшого городка пытается противостоять своему жестокому коррумпированному начальнику, который вместе с группой приближенных к нему сослуживцев все явнее творит произвол и беззаконие на вверенных ему территориях.
Сэмпл: https://yadi.sk/i/8qqzzCMv9cOKBQ
Доп. информация: За предоставленный рип благодарим Ledy_X
Дорожка с VO синхронизирована и наложена ale_x2008 при помощи Sony Vegas и VirtualDubMod.
За оцифрованную с VHS дорожку благодарим - RoxMarty

Релиз
Качество видео: SATRip
Формат видео: AVI
Видео: 720x512 (1.41:1), 25 fps, XviD build 50 ~1974 kbps avg, 0.21 bit/pixel
Аудио: 48 kHz, AC3 Dolby Digital, 2/0 (L,R) ch, ~192 kbps
Аудио 2: AC3 Dolby Digital, 48000Hz 2/0 (L,R) ch (mono), 192 kbps avg VO

MediaInfo

Ужас на шоссе 91 - Terror on Highway 91 [Rip by Edich2] fix.avi
Format : AVI
Format/Info : Audio Video Interleave
File size : 1.49 GiB
Duration : 1 h 29 min
Overall bit rate : 2 373 kb/s
Movie name : Ужас на шоссе 91 - Terror on Highway 91 [Rip by Ledy_X]
Director : Rip by Ledy_X
Writing application : VirtualDubMod 1.5.10.2 (build 2540/release)
Copyright : Edich2
Comment : RuTracker.org
Video
ID : 0
Format : MPEG-4 Visual
Format profile : Advanced Simple@L5
Format settings : BVOP1
Format settings, BVOP : 1
Format settings, QPel : No
Format settings, GMC : No warppoints
Format settings, Matrix : Default (MPEG)
Codec ID : DX50
Codec ID/Hint : DivX 5
Duration : 1 h 29 min
Bit rate : 1 975 kb/s
Width : 720 pixels
Height : 512 pixels
Display aspect ratio : 1.406
Frame rate : 25.000 FPS
Color space : YUV
Chroma subsampling : 4:2:0
Bit depth : 8 bits
Scan type : Progressive
Compression mode : Lossy
Bits/(Pixel*Frame) : 0.214
Stream size : 1.24 GiB (83%)
Writing library : XviD 1.2.1 (UTC 2008-12-04)
Audio #1
ID : 1
Format : AC-3
Format/Info : Audio Coding 3
Codec ID : 2000
Duration : 1 h 29 min
Bit rate mode : Constant
Bit rate : 192 kb/s
Channel(s) : 2 channels
Channel positions : Front: L R
Sampling rate : 48.0 kHz
Frame rate : 31.250 FPS (1536 SPF)
Bit depth : 16 bits
Compression mode : Lossy
Stream size : 123 MiB (8%)
Alignment : Split accross interleaves
Interleave, duration : 40 ms (1.00 video frame)
Interleave, preload duratio : 500 ms
Service kind : Complete Main
Audio #2
ID : 2
Format : AC-3
Format/Info : Audio Coding 3
Codec ID : 2000
Duration : 1 h 29 min
Bit rate mode : Constant
Bit rate : 192 kb/s
Channel(s) : 2 channels
Channel positions : Front: L R
Sampling rate : 48.0 kHz
Frame rate : 31.250 FPS (1536 SPF)
Bit depth : 16 bits
Compression mode : Lossy
Stream size : 123 MiB (8%)
Alignment : Split accross interleaves
Interleave, duration : 40 ms (1.00 video frame)
Interleave, preload duratio : 500 ms
Service kind : Complete Main

Скриншоты


[cybertorrent.ru].t76.torrent 
Торрент: Зарегистрирован [ 2019-03-18 10:04 ] · 59FA4DFF6720F09AF209D59FA370A719F4596816

Скачать .torrent

Скачать

15 KB

Статус: проверено
Скачан: 0 раз
Размер: 1,49 GB
terms.php
[Профиль] [ЛС]
Показать сообщения:    
Ответить на тему

Текущее время: 25-Май 15:54

Часовой пояс: UTC ± 0



Вы не можете начинать темы
Вы не можете отвечать на сообщения
Вы не можете редактировать свои сообщения
Вы не можете удалять свои сообщения
Вы не можете голосовать в опросах
Вы не можете прикреплять файлы к сообщениям
Вы можете скачивать файлы