Американская семейка / Modern Family / Сезон: 10 / Серии: 1-17 из 22 (Гейл Манкусо, Джеймс Алан Хенш) [2018, США, Мелодрама, комедия, WEB-DLRip] MVO (LostFilm) + Original

Ответить на тему
Статистика раздачи
Размер:  4,57 GB   |    Зарегистрирован:  4 месяца   |    Скачан:  0 раз

Полного источника не было: Никогда

   
 
Автор Сообщение

Рамфоринх ®

Пол: Не указан

Стаж: 4 месяца 7 дней

Сообщений: 317

Создавать темы 19-Мар-2019 15:42

[Цитировать]

Американская семейка | Modern Family- Год выпуска: 2018
Страна: США / 20th Century Fox Television, Steven Levitan Productions
Жанр: Мелодрама, комедия
Продолжительность: ~ 00:22:00-Перевод: Профессиональный (многоголосый закадровый) | LostFilm-Режиссёр: Гейл Манкусо, Джеймс Алан Хенш-В ролях: Эд О’Нил, София Вергара, Тай Бурелл, Джули Боуэн, Джесси Тайлер Фергюсон, Эрик Стоунстрит, Рико Родригес, Нолан Гоулд, Сара Хайланд, Ариэль Уинтер и др.-Описание: Джей Притчетт познакомился со сногсшибательной колумбийкой Глорией, когда она в бикини подавала ему коктейли на вечеринке, которую он устроил в день ухода его первой жены. Теперь Джей и Глория женаты, и Джей изо всех сил старается не отставать от молодой красотки-жены и её сына Мэни. В семье Клэр Данфи тоже не все гладко. Её муж Фил — просто замечательный, но он считает, что «свой в доску» для детей, чем их сильно смущает. А сын Джея, Митчелл, и его партнёр Камерон только что удочерили Лили, очаровательного младенца из Вьетнама.- -[box=#aed8ff,#003465]Ссылка на предыдущие и альтернативные раздачи[/box]-Качество: WEB-DLRip
Формат: AVI
Видео: XviD, 720x400 (16:9), 23,976 кадров/сек, ~1500 Кбит/сек
Аудио Rus: MP3, 48 kHz, 2 ch, 128 Кбит/сек | LostFilm
Аудио Eng: MP3, 48 kHz, 2 ch, 128 Кбит/сек
Субтитры: Отсутствуют
Реклама: Отсутствует-

✘ Релиз ✘

Рип: DriverV
-

Список серий

01. I Love a Parade / Я люблю парады
02. Kiss and Tell / Поцелуй и расскажи
03. A Sketchy Area / Мутное дело
04. Torn Between Two Lovers / Разрываясь между двух любовников
05. Good Grief / Скорбь и радость
06. On the Same Paige / Несовпадение взглядов
07. Did the Chicken Cross the Road? / Перешла ли курица дорогу?
08. Kids These Days / Ох уж эти детки
09. Putting Down Roots / Пуская корни
10. Stuck in a Moment / Застрявшие в моменте
11. A Moving Day / Переезд
12. Blasts from the Past / Отзвуки прошлого
13. Whanex? / Штадэш?
14. We Need to Talk About Lily / Нам надо поговорить о Лили
15. SuperShowerBabyBowl / Супербэйбишауэрбоул
16. Red Alert / Красная тревога
17. The Wild / Дебри
-

MediaInfo

Общее
Полное имя : D:\Американская семейка (сезон 10) Modern Family (2018) WEB-DLRip - LostFilm\Modern.Family.S10E01.WEB-DLRip.Rus.Eng.DV.LostFilm.avi
Формат : AVI
Формат/Информация : Audio Video Interleave
Размер файла : 275 Мбайт
Продолжительность : 21 м. 32 с.
Общий поток : 1787 Кбит/сек
Название фильма : Modern.Family.S10E01.WEB-DLRip.Rus.Eng.DV.LostFilm / NNM-Club
Программа кодирования : VirtualDubModRus 1.5.10.2 (build 2542/release)
Библиотека кодирования : VirtualDubMod build 2542/release
Видео
Идентификатор : 0
Формат : MPEG-4 Visual
Профиль формата : Advanced Simple@L5
Настройки формата : BVOP2
Параметр BVOP формата : 2
Параметр QPel формата : Нет
Параметр GMC формата : Без точки перехода
Параметр матрицы формата : Default (H.263)
Идентификатор кодека : XVID
Идентификатор кодека/Подсказка : XviD
Продолжительность : 21 м. 32 с.
Битрейт : 1517 Кбит/сек
Ширина : 720 пикселей
Высота : 400 пикселей
Соотношение сторон : 16:9
Частота кадров : 23,976 (24000/1001) кадра/сек
Цветовое пространство : YUV
Субдискретизация насыщенности : 4:2:0
Битовая глубина : 8 бит
Тип развёртки : Прогрессивная
Метод сжатия : С потерями
Бит/(Пиксели*Кадры) : 0.220
Размер потока : 234 Мбайт (85%)
Заголовок : Rip by DriverV / NNM-Club
Библиотека кодирования : XviD 67
Аудио #1
Идентификатор : 1
Формат : MPEG Audio
Версия формата : Version 1
Профиль формата : Layer 3
Настройки формата : Joint stereo / MS Stereo
Идентификатор кодека : 55
Идентификатор кодека/Подсказка : MP3
Продолжительность : 21 м. 32 с.
Вид битрейта : Постоянный
Битрейт : 128 Кбит/сек
Каналы : 2 канала
Частота : 48,0 КГц
Метод сжатия : С потерями
Размер потока : 19,7 Мбайт (7%)
Выравнивание : Соединение по промежуткам
Продолжительность промежутка : 42 мс. (1,00 видеокадр)
Время предзагрузки промежутка : 504 мс.
Аудио #2
Идентификатор : 2
Формат : MPEG Audio
Версия формата : Version 1
Профиль формата : Layer 3
Настройки формата : Joint stereo / MS Stereo
Идентификатор кодека : 55
Идентификатор кодека/Подсказка : MP3
Продолжительность : 21 м. 32 с.
Вид битрейта : Постоянный
Битрейт : 128 Кбит/сек
Каналы : 2 канала
Частота : 48,0 КГц
Метод сжатия : С потерями
Размер потока : 19,7 Мбайт (7%)
Выравнивание : Соединение по промежуткам
Продолжительность промежутка : 42 мс. (1,00 видеокадр)
Время предзагрузки промежутка : 504 мс.
-

Скриншоты

-

Внимание! Раздача ведётся путём добавления новых серий

Внимание! Раздача ведётся путём добавления новых серий; при каждом добавлении создаётся новый торрент. Чтобы начать докачку новой серии, пользователям необходимо сделать следующее:
(1) остановить скачивание,
(2) удалить старый торрент у себя из клиента (старые серии удалять не надо),
(3) скачать новый торрент и запустить его у себя в клиенте вместо старого, при этом указать клиенту путь в старую папку куда и должно происходить скачивание новых серий.
Ваш клиент при этом должен произвести хеширование (проверку) старой папки (если не производит сам - помогите ему сделать это), и будет докачивать только те серии которых у вас ещё нет. Старые серии при этом не удаляются, а продолжают раздаваться!
Eсли вы уже удалили старые серии, то предотвратить повторную закачку старых серий можно, отжав галочку в соответствующих местах при запуске нового торрента. По возможности, желательно не удалять старые серии как можно дольше чтобы релизёр не столько продолжал раздавать старые серии, а смог сконцентрироваться на новых.
[cybertorrent.ru].t791.torrent 
Торрент: Зарегистрирован [ 2019-03-19 15:46 ] · C9E8E51905BC9BA0485E034B2BC1B1B4065DD071

Скачать .torrent

Скачать

14 KB

Статус: проверено
Скачан: 0 раз
Размер: 4,57 GB
terms.php
[Профиль] [ЛС]
Показать сообщения:    
Ответить на тему

Текущее время: 20-Июл 05:34

Часовой пояс: UTC ± 0



Вы не можете начинать темы
Вы не можете отвечать на сообщения
Вы не можете редактировать свои сообщения
Вы не можете удалять свои сообщения
Вы не можете голосовать в опросах
Вы не можете прикреплять файлы к сообщениям
Вы можете скачивать файлы