Болек и Лелек в Европе / Bolek i Lolek w Europie / Серии: 1-3, 5 из 5 (Владислав Нагребецки / Wladyslaw Nehrebecki, Альфред Ледвиг / Alfred Ledwig) [1983-1986, Детский, TVRip] DUB

Ответить на тему
Статистика раздачи
Размер:  544 MB   |    Зарегистрирован:  1 месяц 4 дня   |    Скачан:  0 раз

Полного источника не было: Никогда

   
 
Автор Сообщение

HRIME ®

Пол: Не указан

Стаж: 1 месяц 10 дней

Сообщений: 52

Создавать темы 18-Мар-2019 10:03

[Цитировать]

-Болек и Лелек в Европе / Bolek i Lolek w Europie- Страна: Польша
Жанр: Детский
Продолжительность: 10 мин.
Год выпуска: 1983-1986 г.
Перевод: Профессиональный (Дубляж)
Русские субтитры: Нет
Режиссер: Владислав Нагребецки / Wladyslaw Nehrebecki, Альфред Ледвиг / Alfred Ledwig
Студия: "Бельска Бяла" / Bielsku-Bialej--Описание: Хорошо знакомые и горячо любимые всеми веселые приятели Болек и Лелек никогда не сидят без дела. Они самые непоседливые и любознательные выдумщики на свете. Болек и Лелек обожают приключения и постоянно попадают в забавные ситуации, из которых непросто выпутаться. На этот раз они отправляются в приключение по Европе.-Доп. информация: Запись сделана с IPTV. 4 серия с русским дубляжом показана не была, но ее можно посмотреть на польском. Например, в этой раздаче.-- | Релиз: -Качество: TVRip
Формат: AVI
Видео:
720x576 (5:4), 25 fps, XviD ~1750 kbps avg, 0.17 bit/pixel
Аудио:
48 kHz, MPEG Layer 3, 2 ch, ~160.00 kbps avg

Альтернативные раздачи мультфильма-

Список серий


1. Призрак замка лорда Макинтоша
2. В царстве Посейдона
3. В Испании
4. Под кратером
5. Оленьи гонки

Скриншоты

Подробные тех. данные

Формат : AVI
Формат/Информация : Audio Video Interleave
Размер файла : 138 Мбайт
Продолжительность : 10 м.
Общий поток : 1914 Кбит/сек
Библиотека кодирования : VirtualDub build 35512/release
Видео
Идентификатор : 0
Формат : MPEG-4 Visual
Профиль формата : Advanced Simple@L5
Параметр BVOP формата : 4
Параметр QPel формата : Нет
Параметр GMC формата : Без точки перехода
Параметр матрицы формата : Default (MPEG)
Идентификатор кодека : XVID
Идентификатор кодека/Подсказка : XviD
Продолжительность : 10 м.
Битрейт : 1745 Кбит/сек
Ширина : 720 пикселей
Высота : 576 пикселей
Соотношение сторон : 5:4
Частота кадров : 25,000 кадров/сек
Стандарт вещания : PAL
Цветовое пространство : YUV
Субдискретизация насыщенности : 4:2:0
Битовая глубина : 8 бит
Тип развёртки : Прогрессивная
Метод сжатия : С потерями
Бит/(Пиксели*Кадры) : 0.168
Размер потока : 126 Мбайт (91%)
Библиотека кодирования : XviD 66
Аудио
Идентификатор : 1
Формат : MPEG Audio
Версия формата : Version 1
Профиль формата : Layer 3
Режим : Joint stereo
Идентификатор кодека : 55
Идентификатор кодека/Подсказка : MP3
Продолжительность : 10 м.
Вид битрейта : Постоянный
Битрейт : 160 Кбит/сек
Каналы : 2 канала
Частота : 48,0 КГц
Метод сжатия : С потерями
Размер потока : 11,5 Мбайт (8%)
Выравнивание : Разделение по промежуткам
Продолжительность промежутка : 40 мс. (1,00 видеокадр)
Время предзагрузки промежутка : 500 мс.

Если ваш рейтинг упадет ниже 0,3, вы не сможете скачивать торренты! Подробнее о рейтинге.

[cybertorrent.ru].t84.torrent 
Торрент: Зарегистрирован [ 2019-03-18 10:04 ] · 627962351BC18D08D823D2EA9520C67986B26F92

Скачать .torrent

Скачать

22 KB

Статус: проверено
Скачан: 0 раз
Размер: 544 MB
terms.php
[Профиль] [ЛС]
Показать сообщения:    
Ответить на тему

Текущее время: 23-Апр 06:04

Часовой пояс: UTC ± 0



Вы не можете начинать темы
Вы не можете отвечать на сообщения
Вы не можете редактировать свои сообщения
Вы не можете удалять свои сообщения
Вы не можете голосовать в опросах
Вы не можете прикреплять файлы к сообщениям
Вы можете скачивать файлы