Черный список / The Blacklist / Сезон: 6 / Серии: 1-11 из 22 (Билл Роу, Лин Одинг, Дэниел Уиллис) [2019, США, Триллер, драма, криминал, детектив, WEB-DLRip] MVO (LostFilm) + Original

Ответить на тему
Статистика раздачи
Размер:  5,84 GB   |    Зарегистрирован:  3 месяца 29 дней   |    Скачан:  0 раз

Полного источника не было: Никогда

   
 
Автор Сообщение

Рамфоринх ®

Пол: Не указан

Стаж: 4 месяца 5 дней

Сообщений: 311

Создавать темы 19-Мар-2019 15:41

[Цитировать]

-Черный список | The Blacklist- Год выпуска: 2019
Страна: США
Жанр: Триллер, драма, криминал, детектив
Продолжительность: ~ 00:43:00-Перевод: Профессиональный (многоголосый закадровый) | LostFilm-Режиссёр: Билл Роу, Лин Одинг, Дэниел Уиллис-В ролях: Джеймс Спэйдер, Меган Бун, Кристофер Ламберт, Хишам Тафик, Фиона Дуриф, Кен Люн, Комал Чарания, Майкл Кейлоун, Хавьер Молина, Гари Перез и др.-Описание: Шестой сезон популярного американского сериала «Черный список».
Один из главных героев этого сериала — Рэймонд Реддингтон, которого многие годы пытается поймать ФБР. Раньше этот загадочный человек работал на правительство, а затем оказался на другой стороне закона.
Однажды этот самый разыскиваемы преступник приходит в Бюро, чтобы сдаться. Его условия сотрудничества — работа исключительно с Элизабет Кин. Такое требование стало первой из большой череды загадок Реддингтона.- -[box=#aed8ff,#003465]Ссылка на предыдущие и альтернативные раздачи[/box]-Качество: WEB-DLRip
Формат: AVI
Видео: XviD, 720x400 (16:9), 23.976 кадров/сек, ~1500 Кбит/сек
Аудио Rus: MP3, 48 kHz, 2 ch, 128 Кбит/сек | LostFilm
Аудио Eng: MP3, 48 kHz, 2 ch, 128 Кбит/сек
Субтитры: Отсутствуют
Реклама: Отсутствует-

✘ Релиз ✘

Рип: DriverV
-

Список серий

01. Dr. Hans Koehler / Доктор Ханс Колер
02. The Corsican / Корсиканец
03. The Pharmacist / Фармацевт
04. The Pawnbrokers / Ростовщики
05. Alter Ego / Альтер Эго
06. The Ethicist / Этик
07. General Shiro / Генерал Широ
08. Marko Jankowics / Марко Янкович
09. Minister D / Министр Ди
10. The Cryptobanker / Криптобанкир
11. Bastien Moreau / Бастьен Моро
-

MediaInfo

Общее
Полное имя : D:\Черный список (сезон 6) The Blacklist (2019) WEB-DLRip - LostFilm\The.Blacklist.S06E01.WEB-DLRip.Rus.Eng.DV.LostFilm.avi
Формат : AVI
Формат/Информация : Audio Video Interleave
Размер файла : 545 Мбайт
Продолжительность : 43 м. 0 с.
Общий поток : 1773 Кбит/сек
Название фильма : The.Blacklist.S06E01.WEB-DLRip.Rus.Eng.DV.LostFilm / NNM-Club
Программа кодирования : VirtualDubModRus 1.5.10.2 (build 2542/release)
Библиотека кодирования : VirtualDubMod build 2542/release
Видео
Идентификатор : 0
Формат : MPEG-4 Visual
Профиль формата : Advanced Simple@L5
Настройки формата : BVOP2
Параметр BVOP формата : 2
Параметр QPel формата : Нет
Параметр GMC формата : Без точки перехода
Параметр матрицы формата : Default (H.263)
Идентификатор кодека : XVID
Идентификатор кодека/Подсказка : XviD
Продолжительность : 43 м. 0 с.
Битрейт : 1503 Кбит/сек
Ширина : 720 пикселей
Высота : 400 пикселей
Соотношение сторон : 16:9
Частота кадров : 23,976 (24000/1001) кадра/сек
Цветовое пространство : YUV
Субдискретизация насыщенности : 4:2:0
Битовая глубина : 8 бит
Тип развёртки : Прогрессивная
Метод сжатия : С потерями
Бит/(Пиксели*Кадры) : 0.218
Размер потока : 462 Мбайт (85%)
Заголовок : Rip by DriverV / NNM-Club
Библиотека кодирования : XviD 67
Аудио #1
Идентификатор : 1
Формат : MPEG Audio
Версия формата : Version 1
Профиль формата : Layer 3
Настройки формата : Joint stereo / MS Stereo
Идентификатор кодека : 55
Идентификатор кодека/Подсказка : MP3
Продолжительность : 43 м. 0 с.
Вид битрейта : Постоянный
Битрейт : 128 Кбит/сек
Каналы : 2 канала
Частота : 48,0 КГц
Метод сжатия : С потерями
Размер потока : 39,4 Мбайт (7%)
Выравнивание : Соединение по промежуткам
Продолжительность промежутка : 42 мс. (1,00 видеокадр)
Время предзагрузки промежутка : 504 мс.
Аудио #2
Идентификатор : 2
Формат : MPEG Audio
Версия формата : Version 1
Профиль формата : Layer 3
Настройки формата : Joint stereo / MS Stereo
Идентификатор кодека : 55
Идентификатор кодека/Подсказка : MP3
Продолжительность : 43 м. 0 с.
Вид битрейта : Постоянный
Битрейт : 128 Кбит/сек
Каналы : 2 канала
Частота : 48,0 КГц
Метод сжатия : С потерями
Размер потока : 39,4 Мбайт (7%)
Выравнивание : Соединение по промежуткам
Продолжительность промежутка : 42 мс. (1,00 видеокадр)
Время предзагрузки промежутка : 504 мс.
-

Скриншоты

-

Внимание! Раздача ведётся путём добавления новых серий

Внимание! Раздача ведётся путём добавления новых серий; при каждом добавлении создаётся новый торрент. Чтобы начать докачку новой серии, пользователям необходимо сделать следующее:
(1) остановить скачивание,
(2) удалить старый торрент у себя из клиента (старые серии удалять не надо),
(3) скачать новый торрент и запустить его у себя в клиенте вместо старого, при этом указать клиенту путь в старую папку куда и должно происходить скачивание новых серий.
Ваш клиент при этом должен произвести хеширование (проверку) старой папки (если не производит сам - помогите ему сделать это), и будет докачивать только те серии которых у вас ещё нет. Старые серии при этом не удаляются, а продолжают раздаваться!
Eсли вы уже удалили старые серии, то предотвратить повторную закачку старых серий можно, отжав галочку в соответствующих местах при запуске нового торрента. По возможности, желательно не удалять старые серии как можно дольше чтобы релизёр не столько продолжал раздавать старые серии, а смог сконцентрироваться на новых.
[cybertorrent.ru].t850.torrent 
Торрент: Зарегистрирован [ 2019-03-19 15:46 ] · 16A7C960C9573C4CD629E8B84FC5795EFD0E5CD3

Скачать .torrent

Скачать

16 KB

Статус: проверено
Скачан: 0 раз
Размер: 5,84 GB
terms.php
[Профиль] [ЛС]
Показать сообщения:    
Ответить на тему

Текущее время: 18-Июл 10:50

Часовой пояс: UTC ± 0



Вы не можете начинать темы
Вы не можете отвечать на сообщения
Вы не можете редактировать свои сообщения
Вы не можете удалять свои сообщения
Вы не можете голосовать в опросах
Вы не можете прикреплять файлы к сообщениям
Вы можете скачивать файлы