Точная копия / Под копирку / Копия в негативе / Carbon Copy (Майкл Шульц / Michael Schultz) [1981, США, комедия, DVDRip-AVC] AVO (Гаврилов) + AVO (Михалёв) + Sub Eng

Ответить на тему
Статистика раздачи
Размер:  701 MB   |    Зарегистрирован:  5 месяцев 28 дней   |    Скачан:  0 раз

Полного источника не было: Никогда

   
 
Автор Сообщение

serzh ®

Пол: Не указан

Стаж: 6 месяцев 3 дня

Сообщений: 383

Создавать темы 18-Мар-2019 10:03

[Цитировать]

Точная копия / Под копирку / Копия в негативе / Carbon Copy
Страна: США
Жанр: комедия
Год выпуска: 1981
Продолжительность: 01:31:10
Перевод: Авторский (одноголосый закадровый) Гаврилов
Перевод 2: Авторский (одноголосый закадровый) Михалёв
Субтитры: английские
Режиссер: Майкл Шульц / Michael Schultz
В ролях: Джордж Сигал, Сьюзан Сент-Джеймс, Дензел Вашингтон, Джек Уорден, Дик Мартин, Пол Уинфилд, Макон МакКалман, Вики Даусон, Парли Баэр, Вернон Уиддл

Описание: К известному работнику крупной корпорации - Уолтеру Уитни внезапно приезжает сын Роджер, о существовании которого он и не подозревал. Уолтер - ошарашен: его отпрыск, уже неюный и элегантный негр, якобы рожденный от темнокожей красавицы по имени Лорейн.
Растерянный Уолтер предлагает своей жене усыновить взрослого «ребенка», но она в ответ уходит от него и подает на развод. Теперь Уолтеру придется одному «усыновлять» героя Дензела Вашингтона и испытать все «прелести» отцовства!

Доп. информация: Исходник: http://cybertorrent.ru/forum/viewtopic.php?t=1793922
Видео поделено на главы.
Впервые на экране Дензел Вашингтон.
Сэмпл: https://www.sendspace.com/file/taq1a2
Качество видео: DVDRip-AVC
Формат видео: MKV
Видео: 656х480, 4:2:0, 23.976 fps, AVC ~976 Kbps avg, ~0.129/pixel
Аудио: 48.0 kHz, HE-AACv2 , 2/0 (L,R) ch, ~48.00 kbps (Гаврилов)
Аудио 2: 48.0 kHz, HE-AACv2 , 2/0 (L,R) ch, ~48.00 kbps (Михалёв)

MediaInfo

Точная копия [Под копирку] (Carbon Copy) DVDrip.1981.sub.перевод AVOx2.mkv
Формат : Matroska
Версия формата : Version 4 / Version 2
Размер файла : 701 Мбайт
Продолжительность : 1 ч. 31 м.
Общий поток : 1076 Кбит/сек
Дата кодирования : UTC 2019-02-18 09:27:14
Программа кодирования : mkvmerge v25.0.0 ('Prog Noir') 64-bit
Библиотека кодирования : libebml v1.3.6 + libmatroska v1.4.9
Видео
Идентификатор : 1
Формат : AVC
Формат/Информация : Advanced Video Codec
Профиль формата : High@L4.1
Параметр CABAC формата : Да
Параметр ReFrames формата : 16 кадров
Идентификатор кодека : V_MPEG4/ISO/AVC
Продолжительность : 1 ч. 31 м.
Битрейт : 976 Кбит/сек
Ширина : 656 пикселей
Высота : 480 пикселей
Соотношение сторон : 4:3
Режим частоты кадров : Переменный
Частота кадров : 23,976 (23976/1000) кадра/сек
Цветовое пространство : YUV
Субдискретизация насыщенности : 4:2:0
Битовая глубина : 8 бит
Тип развёртки : Прогрессивная
Бит/(Пиксели*Кадры) : 0.129
Размер потока : 636 Мбайт (91%)
Библиотека кодирования : x264 core 157 r2935 545de2f
Настройки программы : cabac=1 / ref=16 / deblock=1:-3:-3 / analyse=0x3:0x133 / me=umh / subme=10 / psy=1 / psy_rd=1.05:0.10 / mixed_ref=1 / me_range=32 / chroma_me=1 / trellis=2 / 8x8dct=1 / cqm=0 / deadzone=21,11 / fast_pskip=0 / chroma_qp_offset=-3 / threads=12 / lookahead_threads=3 / sliced_threads=0 / nr=0 / decimate=0 / interlaced=0 / bluray_compat=0 / constrained_intra=0 / bframes=14 / b_pyramid=2 / b_adapt=2 / b_bias=0 / direct=3 / weightb=1 / open_gop=0 / weightp=2 / keyint=240 / keyint_min=23 / scenecut=40 / intra_refresh=0 / rc_lookahead=60 / rc=2pass / mbtree=1 / bitrate=976 / ratetol=1.0 / qcomp=0.80 / qpmin=0 / qpmax=69 / qpstep=4 / cplxblur=20.0 / qblur=0.5 / vbv_maxrate=62500 / vbv_bufsize=78125 / nal_hrd=none / filler=0 / ip_ratio=1.40 / aq=1:1.00
Default : Да
Forced : Нет
Аудио #1
Идентификатор : 2
Формат : AAC
Формат/Информация : Advanced Audio Codec
Профиль формата : HE-AACv2 / HE-AAC / LC
Идентификатор кодека : A_AAC
Продолжительность : 1 ч. 31 м.
Битрейт : 48,0 Кбит/сек
Каналы : 2 канала / 1 канал / 1 канал
Расположение каналов : Front: L R / Front: C / Front: C
Частота : 48,0 КГц / 48,0 КГц / 24,0 КГц
Частота кадров : 23,438 кадра/сек (1024 spf)
Метод сжатия : С потерями
Задержка видео : 32 мс.
Размер потока : 31,3 Мбайт (4%)
Заголовок : Гаврилов
Язык : Russian
Default : Да
Forced : Нет
Аудио #2
Идентификатор : 3
Формат : AAC
Формат/Информация : Advanced Audio Codec
Профиль формата : HE-AACv2 / HE-AAC / LC
Идентификатор кодека : A_AAC
Продолжительность : 1 ч. 31 м.
Битрейт : 48,0 Кбит/сек
Каналы : 2 канала / 1 канал / 1 канал
Расположение каналов : Front: L R / Front: C / Front: C
Частота : 48,0 КГц / 48,0 КГц / 24,0 КГц
Частота кадров : 23,438 кадра/сек (1024 spf)
Метод сжатия : С потерями
Задержка видео : 32 мс.
Размер потока : 31,3 Мбайт (4%)
Заголовок : Михалёв
Язык : Russian
Default : Нет
Forced : Нет
Текст
Идентификатор : 4
Формат : UTF-8
Идентификатор кодека : S_TEXT/UTF8
Идентификатор кодека/Информация : UTF-8 Plain Text
Продолжительность : 1 ч. 25 м.
Битрейт : 72 бит/сек
Count of elements : 1567
Размер потока : 45,2 Кбайт (0%)
Язык : English
Default : Нет
Forced : Нет
Меню
00:00:00.000 : en:Chapter 01
00:06:55.796 : en:Chapter 02
00:12:36.107 : en:Chapter 03
00:19:41.496 : en:Chapter 04
00:22:09.131 : en:Chapter 05
00:30:31.361 : en:Chapter 06
00:38:10.531 : en:Chapter 07
00:44:57.779 : en:Chapter 08
00:53:10.104 : en:Chapter 09
01:02:40.001 : en:Chapter 10
01:08:41.936 : en:Chapter 11
01:12:14.630 : en:Chapter 12
01:18:27.471 : en:Chapter 13
01:29:13.062 : en:Chapter 14
01:37:04.452 : en:Chapter 15
01:42:51.103 : en:Chapter 16
Внимание!
Раздача перезалита. Видео и аудио заменено на лучшее качество. Добавлены английские субтитры.
[cybertorrent.ru].t86.torrent 
Торрент: Зарегистрирован [ 2019-03-18 10:04 ] · E2675FD1C28C4011ACDFB266DCE6CEE10336140D

Скачать .torrent

Скачать

14 KB

Статус: проверено
Скачан: 0 раз
Размер: 701 MB
terms.php
[Профиль] [ЛС]
Показать сообщения:    
Ответить на тему

Текущее время: 16-Сен 04:10

Часовой пояс: UTC ± 0



Вы не можете начинать темы
Вы не можете отвечать на сообщения
Вы не можете редактировать свои сообщения
Вы не можете удалять свои сообщения
Вы не можете голосовать в опросах
Вы не можете прикреплять файлы к сообщениям
Вы можете скачивать файлы

Партнеры

Выражаем благодарность всем людям, внесшим вклад в наш сайт в далёком прошлом. Мы помним Вас, гордимся Вами и ждём Вас обратно!

Интересное в сети